travismk
一代宗师

[2012] [日本] [其他] [BD-1080P] 蜡笔小新:风起云涌!我的宇宙公主 Crayon.Shinchan.the.Storm.Called.Me.and.the.Space.Princess.2012

-->

帖子完整标题:蜡笔小新:风起云涌!我的宇宙公主 Crayon.Shinchan.the.Storm.Called.Me.and.the.Space.Princess.2012.JAPANESE.1080p.BluRay.x264.DD5.1-NY 4.70GB



◎译  名 蜡笔小新:风起云涌!我的宇宙公主
◎片  名 クレヨンしんちゃん 嵐を呼ぶ!オラと宇宙のプリンセス
◎年  代 2012
◎产  地 日本
◎类  别 动画
◎语  言 日语
◎上映日期 2012-04-14(日本)
◎豆瓣评分 7.6/10 from 6453 users
◎豆瓣链接 https://movie.douban.com/subject/6960858/
◎片  长 110分钟(日本)
◎导  演 增井壮一 Masui Souichi
◎编  剧 臼井仪人 Yoshito Usui
◎主  演 矢岛晶子 Akiko Yajima
      楢桥美纪 Miki Narahashi
      藤原启治 Keiji Fujiwara
      兴梠里美 Satomi Koorogi
      真柴摩利 Mashiba Mari
      林玉绪 Hayashi Tamao
      一龙斋贞友 Teiy? Ichiry?sai
      佐藤智惠 Satou Chie
      柴田秀胜 Hidekatsu Shibata
      三矢雄二 Y?ji Mitsuya
      日高法子 Noriko Hidaka
      川村万梨阿 Maria Kawamura
      辻亲八 Shinpachi Tsuji
      岩田光央 Mitsuo Iwata
      纳谷六朗 Rokur? Naya
      七绪春日 Haruhi Nanao
      富泽美智惠 Michie Tomizawa
      三石琴乃 Kotono Mitsuishi
      萩森侚子 Hagimori Junko
      阪口大助 Daisuke Sakaguchi
      大本真基子 Makiko ?moto
      长岛雄一 Y?ichi Nagashima
      铃木玲子 Reiko Suzuki
      木村雅史 Masafumi Kimura
      星野充昭 Mitsuaki Hoshino
      大西健晴 Oonishi Takeharu
      饭田利信 Toshinobu Iida
      吉田小百合 Yoshida Sayuri
      泷本富士子 Fujiko Takimoto
      树元织江 Kimoto Orie
      藤井隆 Takashi Fujii
      田中直树 Naoki Tanaka
      远藤章造 Shozo Endo
      土田晃之 Teruyuki Tsuchida
      羽鸟慎一 Shinichi Hatori
      饭塚昭三 Sh?z? ?zuka
      梯笃司 Kakehashi Atsushi

◎标  签 蜡笔小新 | 剧场版 | 日本 | 动画 | 2012 | 日本动画 | 动漫 | 喜剧

◎简  介

  因为一块布丁,野原新之助(矢岛晶子 配音)和妹妹向日葵(こおろぎさとみ 配音)激烈争吵,身为哥哥他自然受到爸爸广志(藤原啓治 配音)和妈妈美伢(ならはしみき 配音)的训斥。小新恼羞成怒,扬言“不要当哥哥!不要妹妹了!”就在此刻,一胖一瘦两个绿衣人出现,声称愿意将小葵收养,以向日葵公主的身份展开新的生活。一道刺眼强光过后,签订了协议的野原一家被吸入UFO,开始了吉凶未卜的宇宙旅行。
  
  从向日葵星国王口中得知,当前这颗星球和地球正面临前所未有的危机,一旦二者间的平衡受到破坏,两颗星球都将迎来毁灭的厄运。而向日葵,正是防止危机的关键……

Video
ID : 1
Format : AVC
Format/Info : Advanced Video Codec
Format profile : [email protected]
Format settings : CABAC / 4 Ref Frames
Format settings, CABAC : Yes
Format settings, Reference frames : 4 frames
Codec ID : V_MPEG4/ISO/AVC
Duration : 1 h 50 min
Bit rate : 5 397 kb/s
Width : 1 920 pixels
Height : 1 080 pixels
Display aspect ratio : 16:9
Frame rate mode : Constant
Frame rate : 23.976 (24000/1001/189150) FPS
Color space : YUV
Chroma subsampling : 4:2:0
Bit depth : 8 bits
Scan type : Progressive
Bits/(Pixel*Frame) : 0.109
Stream size : 4.17 GiB (89%)
Writing library : x264 core 157 r2935 545de2f
Encoding settings : cabac=1 / ref=4 / deblock=1:-3:-3 / analyse=0x3:0x133 / me=umh / subme=10 / psy=1 / psy_rd=1.00:0.00 / mixed_ref=1 / me_range=32 / chroma_me=1 / trellis=2 / 8x8dct=1 / cqm=0 / deadzone=21,11 / fast_pskip=0 / chroma_qp_offset=-2 / threads=30 / lookahead_threads=7 / sliced_threads=0 / nr=0 / decimate=0 / interlaced=0 / bluray_compat=0 / constrained_intra=0 / bframes=16 / b_pyramid=2 / b_adapt=2 / b_bias=0 / direct=3 / weightb=1 / open_gop=0 / weightp=2 / keyint=240 / keyint_min=24 / scenecut=40 / intra_refresh=0 / rc_lookahead=60 / rc=crf / mbtree=0 / crf=17.0 / qcomp=0.60 / qpmin=0 / qpmax=69 / qpstep=4 / vbv_maxrate=62500 / vbv_bufsize=78125 / crf_max=0.0 / nal_hrd=none / filler=0 / ip_ratio=1.40 / pb_ratio=1.30 / aq=2:1.00
Default : Yes
Forced : No
Color range : Limited
Color primaries : BT.709
Transfer characteristics : BT.709
Matrix coefficients : BT.709

Audio
ID : 2
Format : AC-3
Format/Info : Audio Coding 3
Commercial name : Dolby Digital
Codec ID : A_AC3
Duration : 1 h 50 min
Bit rate mode : Constant
Bit rate : 640 kb/s
Channel(s) : 6 channels
Channel layout : L R C LFE Ls Rs
Sampling rate : 48.0 kHz
Frame rate : 31.250 FPS (1536 SPF)
Compression mode : Lossy
Stream size : 506 MiB (11%)
Language : Japanese
Service kind : Complete Main
Default : Yes
Forced : No

Text #1
ID : 3
Format : PGS
Muxing mode : zlib
Codec ID : S_HDMV/PGS
Codec ID/Info : Picture based subtitle format used on BDs/HD-DVDs
Duration : 1 h 49 min
Bit rate : 126 kb/s
Count of elements : 6332
Stream size : 98.9 MiB (2%)
Language : Japanese
Default : Yes
Forced : No

Text #2
ID : 4
Format : UTF-8
Codec ID : S_TEXT/UTF8
Codec ID/Info : UTF-8 Plain Text
Duration : 1 h 49 min
Bit rate : 57 b/s
Count of elements : 1643
Stream size : 46.0 KiB (0%)
Language : English
Default : No
Forced : No

Menu
00:00:00.000 : :Chapter 01
00:06:50.827 : :Chapter 02
00:10:25.750 : :Chapter 03
00:13:55.752 : :Chapter 04
00:19:15.946 : :Chapter 05
00:33:36.598 : :Chapter 06
00:37:35.670 : :Chapter 07
00:42:55.656 : :Chapter 08
00:48:42.920 : :Chapter 09
01:00:11.358 : :Chapter 10
01:05:55.785 : :Chapter 11
01:12:53.661 : :Chapter 12
01:25:35.005 : :Chapter 13
01:33:57.465 : :Chapter 14
01:39:52.278 : :Chapter 15
01:44:36.604 : :Chapter 16
01:47:13.093 : :Chapter 17





1 个附件 售价 大小 下载 时间

Crayon.Shinchan.the.Storm.Called.Me.and.the.Space.Princess.2012.JAPANESE.1080p.BluRay.x264.DD5.1-NY.torrent 0 金币 47.73K 1829 次 1月前

#1楼
发帖时间:2021-06-17 19:19:42   |   回复数:0
游客组