q3r3
一代宗师

[更 早] [欧美] [喜剧] [BD-4K] 天降神兵[中文字幕].Howar[email protected]

-->



◎译  名 天降神兵 / 霍华德怪鸭 / 霍华德鸭子 / 天将神兵
◎片  名 Howard the Duck
◎年  代 1986
◎产  地 美国
◎类  别 喜剧 / 动作 / 爱情 / 科幻 / 冒险
◎语  言 英语
◎上映日期 1986-08-01(美国)
◎IMDb链接 https://www.imdb.com/title/tt0091225/
◎豆瓣评分 6.1/10 (433人评价)
◎豆瓣链接 https://movie.douban.com/subject/1295641/
◎片  长 110 分钟
◎导  演 威拉德·赫依克 Willard Huyck (id:1050370)
◎编  剧 史蒂夫·格伯 Steve Gerber (id:1051248)
      威拉德·赫依克 Willard Huyck (id:1050370)
      格洛丽亚·卡茨 Gloria Katz (id:1288204)
◎演  员 莉·汤普森 Lea Thompson (id:1019014)
      杰弗瑞·琼斯 Jeffrey Jones (id:1027832)
      蒂姆·罗宾斯 Tim Robbins (id:1054521)
      艾迪·盖尔 Ed Gale (id:1093015)
      奇普·兹恩 Chip Zien (id:1165342)
      蒂姆·罗斯 Tim Rose (id:1140454)
      乔丹·普林蒂斯 Jordan Prentice (id:1127606)
      保罗·吉尔福伊尔 Paul Guilfoyle (id:1054721)
      Liz Sagal Liz Sagal (id:1027542)
      Dominique Davalos Dominique Davalos (id:1087245)
      霍利·罗宾森·皮特 Holly Robinson Peete (id:1054934)
      汤米·斯威德洛 Tommy Swerdlow (id:1404242)
      理查德·埃德森 Richard Edson (id:1343880)
      Miles Chapin Miles Chapin (id:1077843)
      理查德·麦克格纳格尔 Richard McGonagle (id:1115113)
      弗吉尼亚·卡珀斯 Virginia Capers (id:1071435)
      黛比·李·卡林顿 Debbie Lee Carrington (id:1076595)
      米盖尔·桑多瓦尔 Miguel Sandoval (id:1142087)
      保罗.康尼 Paul Comi (id:1072378)
      大卫·佩默 David Paymer (id:1049845)
      Thomas Dolby Thomas Dolby (id:1028356)
      克里斯托弗·洛根 Kristopher Logan (id:1117281)
      约翰·弗利克 John Fleck (id:1081954)
      Steven Kravitz Steven Kravitz (id:1103987)
      南茜·费什 Nancy Fish (id:1032339)
      理查德·基利 Richard Kiley (id:1114560)
      梅尔·布兰科 Mel Blanc (id:1055154)
      C. Andrew Nelson C. Andrew Nelson (id:1054617)
      詹姆斯·奥里亚 James Olea (id:1170239)
      格洛丽亚·卡茨 Gloria Katz (id:1288204)
      伊安·布莱斯 Ian Bryce (id:1279526)
      乔治·卢卡斯 George Lucas (id:1054507)
      西德尼·沃尔因斯基 Sidney Wolinsky (id:1301170)
      迈克尔·钱德勒 Michael Chandler (id:1280454)
      迪安娜·克里滕登 Dianne Crittenden (id:1281490)
      菲尔·艾布拉姆森 Phil Abramson (id:1276763)
      乔·汤普金斯 Joe I. Tompkins (id:1299373)
      巴里·德雷班德-布尔曼 Bari Dreiband-Burman (id:1282711)
      托马斯·R·伯曼 Thomas R. Burman (id:1279663)
      乔伊·萨帕塔 Joy Zapata (id:1301634)
      Dan Kolsrud Dan Kolsrud (id:1288852)
      约翰·埃利斯 John Ellis (id:1305506)
      迈克尔·J·麦卡利斯特尔 Michael J. McAlister (id:1291408)
      Mark S. Miller Mark S. Miller (id:1292098)
      杰克·莫多万 Jack Mongovan (id:1292344)
      Charlie Mullen Charlie Mullen (id:1292681)
      布鲁斯·尼科尔森 Bruce Nicholson (id:1293146)
      迈克尔·欧文斯 Michael Owens (id:1293758)
      托马斯·罗塞特 Thomas Rosseter (id:1296146)
      肯尼斯·史密斯 Kenneth Smith (id:1297900)
      David Sosalla David Sosalla (id:1298080)
      Tom St. Amand Tom St. Amand (id:1298210)
      Pat Sweeney Pat Sweeney (id:1298721)
      菲尔 蒂贝特 Phil Tippett (id:1299349)
      皮特·科扎齐克 Pete Kozachik (id:1288949)
      比尔·乔治 Bill George (id:1284713)
      戈登·贝克尔 Gordon Baker (id:1277729)
      约翰·阿姆斯特朗 John Allan Armstrong (id:1277410)
      汤姆·柏提诺 Tom Bertino (id:1278530)
      芭芭拉·布伦南 Barbara Brennan (id:1279246)
      乔恩·亚历山大 Jon Alexander (id:1276987)
      Charles Bailey Charles Bailey (id:1277693)
      兰迪·杜特拉 Randy Dutra (id:1282874)
      爱德华·赫希 Edward Hirsh (id:1286690)
      Ned Gorman Ned Gorman (id:1285204)
      埃德·琼斯 Ed Jones (id:1287861)

◎标  签 科幻 / 美国 / 喜剧 / 1986 / Marvel / 漫威 / 美国电影 / 漫画改编

◎简  介
  地球研究所向太空发离子光束,不料却把其它星球的动物及妖魔吸到地球来,最后还是透过星际鸭人把妖魔给打败。

General
Unique ID : 2432759547371872824883130105582094922 (0x1D4884E612D4AC7C748BD6FCF8C8A4A)
Complete name : Howar[email protected]BBQDDQ.COM.mkv
Format : Matroska
Format version : Version 4
File size : 15.5 GiB
Duration : 1 h 50 min
Overall bit rate mode : Variable
Overall bit rate : 20.1 Mb/s
Movie name : Howard the Duck 1986 2160p HDR UHD BluRay DTS-X 7.1 [email protected]
Encoded date : UTC 2021-07-21 13:01:56
Writing application : mkvmerge v38.0.0 ('The Silent Type') 64-bit
Writing library : libebml v1.3.9 + libmatroska v1.5.2

Video
ID : 1
Format : HEVC
Format/Info : High Efficiency Video Coding
Format profile : Main [email protected]@High
HDR format : SMPTE ST 2086, HDR10 compatible
Codec ID : V_MPEGH/ISO/HEVC
Duration : 1 h 50 min
Bit rate : 13.8 Mb/s
Width : 3 840 pixels
Height : 2 072 pixels
Display aspect ratio : 1.85:1
Frame rate mode : Constant
Frame rate : 23.976 (24000/1001) FPS
Color space : YUV
Chroma subsampling : 4:2:0
Bit depth : 10 bits
Bits/(Pixel*Frame) : 0.072
Stream size : 10.6 GiB (69%)
Title : @HDSky
Writing library : x265 - H.265/HEVC codec
Default : Yes
Forced : No
Color range : Limited
Color primaries : BT.2020
Transfer characteristics : PQ
Matrix coefficients : BT.2020 non-constant
Mastering display color primaries : Display P3
Mastering display luminance : min: 0.0020 cd/m2, max: 1000 cd/m2
Maximum Content Light Level : 739 cd/m2
Maximum Frame-Average Light Level : 331 cd/m2

Audio
ID : 2
Format : DTS XLL X
Format/Info : Digital Theater Systems
Commercial name : DTS-HD Master Audio
Codec ID : A_DTS
Duration : 1 h 50 min
Bit rate mode : Variable
Bit rate : 6 266 kb/s
Channel(s) : 8 channels
Channel(s)_Original : Object Based
ChannelLayout_Original : Object Based
Sampling rate : 48.0 kHz
Frame rate : 93.750 FPS (512 SPF)
Bit depth : 24 bits
Stream size : 4.83 GiB (31%)
Title : English
Language : English
Default : Yes
Forced : No

Text #1
ID : 3
Format : PGS
Muxing mode : zlib
Codec ID : S_HDMV/PGS
Codec ID/Info : Picture based subtitle format used on BDs/HD-DVDs
Duration : 1 h 44 min
Bit rate : 48.5 kb/s
Count of elements : 4135
Stream size : 36.2 MiB (0%)
Title : ENG
Language : English
Default : Yes
Forced : No

Text #2
ID : 4
Format : PGS
Muxing mode : zlib
Codec ID : S_HDMV/PGS
Codec ID/Info : Picture based subtitle format used on BDs/HD-DVDs
Duration : 1 h 44 min
Bit rate : 41.3 kb/s
Count of elements : 3135
Stream size : 30.9 MiB (0%)
Title : CHS
Language : Chinese
Default : No
Forced : No

Text #3
ID : 5
Format : PGS
Muxing mode : zlib
Codec ID : S_HDMV/PGS
Codec ID/Info : Picture based subtitle format used on BDs/HD-DVDs
Duration : 1 h 44 min
Bit rate : 42.2 kb/s
Count of elements : 3135
Stream size : 31.6 MiB (0%)
Title : CHT
Language : Chinese
Default : No
Forced : No

Menu
00:00:00.000 : en:Chapter 01
00:06:19.670 : en:Chapter 02
00:13:57.126 : en:Chapter 03
00:20:13.295 : en:Chapter 04
00:27:32.025 : en:Chapter 05
00:32:09.134 : en:Chapter 06
00:37:34.835 : en:Chapter 07
00:44:27.831 : en:Chapter 08
00:48:24.568 : en:Chapter 09
00:55:36.206 : en:Chapter 10
01:04:02.420 : en:Chapter 11
01:13:03.837 : en:Chapter 12
01:19:34.435 : en:Chapter 13
01:26:40.612 : en:Chapter 14
01:32:55.653 : en:Chapter 15
01:37:23.462 : en:Chapter 16
01:42:40.988 : en:Chapter 17
01:46:07.985 : en:Chapter 18




1 个附件 售价 大小 下载 时间

天降神兵[中文字幕].Howar[email protected]BBQDDQ.COM 15.52GB.torrent 0 金币 43.53K 672 次 11天前

#1楼
发帖时间:2021-07-22 16:19:31   |   回复数:1
liyouchai
隐世仙人♂
谢谢楼主分享资源
10天前 #2楼
游客组