q3r3
一代宗师

[2021] [大陆] [爱情] [WEB-1080P] 有一点动心[email protected] 31.14GB

-->



◎译  名 有一点动心 / 相亲大作战
◎年  代 2021
◎产  地 中国大陆
◎类  别 爱情
◎语  言 汉语普通话
◎上映日期 2021-06-03(中国大陆)
◎IMDb链接 https://www.imdb.com/title/tt13556244/
◎豆瓣评分 4.5/10 (2732人评价)
◎豆瓣链接 https://movie.douban.com/subject/34454693/
◎片  长 94分钟
◎导  演 陈嘉上 Gordon Chan (id:1274245)
      朱雪菲 Xuefei Zhu (id:1439808)
◎编  剧 陈嘉上 Gordon Chan (id:1274245)
      吴晓洁 Xiaojie Wu (id:1426717)
      朱雪菲 Xuefei Zhu (id:1439808)
      林静璇 Jingxuan Lin (id:1439830)
◎演  员 言承旭 Jerry Yan (id:1014501)
      任素汐 Suxi Ren (id:1362973)
      柳岩 Yan Liu (id:1312846)
      戚薇 Stephy Qi (id:1313916)
      连凯 Andrew Lin (id:1122837)
      汤加文 Carmen Tong (id:1358039)
      曹扬 Yang Cao (id:1339294)
      李欣烨 Xinye Li (id:1356952)
      那威 Wei Na (id:1275600)
      李勤勤 Qinqin Li (id:1274639)
      王一宁 Yining Wang (id:1449838)
      张琛 Chen Zhang (id:1394958)
      张信哲 Jeff Chang (id:1198234)
      周丹丹 Dandan Zhou (id:1455707)

◎标  签 言承旭 / 任素汐 / 爱情 / 张信哲 / 喜剧 / 2021 / 中国大陆 / 都市

◎简  介
  周启文(言承旭 饰)创立的游戏公司因旗下员工直播的“渣男”言论引起全网声讨,被迫宣告破产,他带着兄弟们去找“始作俑者”相亲APP员工讨个说法。虽然打着成为对方客户,搅黄她们生意的坏主意,但周启文却被对方女老板陈然(任素汐 饰)安排得明明白白。在不断的相亲过程中,二人逐渐卸下了对彼此的敌意和伪装,互相的了解让二人间萌生情愫。在这越来越不敢爱的时代,周启文和陈然是会就此错过,还是能抓住命运不顾一切付出真心?

General
Complete name : 有一点动心[email protected]
Format : MPEG-4
Format profile : Base Media / Version 2
Codec ID : mp42 (mp42/mp41)
File size : 31.1 GiB
Duration : 1 h 34 min
Overall bit rate mode : Variable
Overall bit rate : 47.0 Mb/s
Encoded date : UTC 2021-07-19 09:48:35
Tagged date : UTC 2021-07-19 10:44:48
TIM : 00:00:00:00
TSC : 24
TSZ : 1

Video
ID : 1
Format : AVC
Format/Info : Advanced Video Codec
Format profile : [email protected]
Format settings : CABAC / 4 Ref Frames
Format settings, CABAC : Yes
Format settings, Reference frames : 4 frames
Format settings, GOP : M=4, N=24
Codec ID : avc1
Codec ID/Info : Advanced Video Coding
Duration : 1 h 34 min
Bit rate : 46.7 Mb/s
Width : 2 048 pixels
Height : 864 pixels
Display aspect ratio : 2.40:1
Frame rate mode : Constant
Frame rate : 24.000 FPS
Color space : YUV
Chroma subsampling : 4:2:0
Bit depth : 8 bits
Scan type : Progressive
Bits/(Pixel*Frame) : 1.100
Stream size : 30.9 GiB (99%)
Language : English
Encoded date : UTC 2021-07-19 09:48:35
Tagged date : UTC 2021-07-19 09:48:35
Color range : Limited
Color primaries : BT.709
Transfer characteristics : BT.709
Matrix coefficients : BT.709
Codec configuration box : avcC

Audio
ID : 2
Format : AAC LC
Format/Info : Advanced Audio Codec Low Complexity
Codec ID : mp4a-40-2
Duration : 1 h 34 min
Source duration : 1 h 34 min
Bit rate mode : Variable
Bit rate : 317 kb/s
Maximum bit rate : 408 kb/s
Channel(s) : 2 channels
Channel layout : L R
Sampling rate : 48.0 kHz
Frame rate : 46.875 FPS (1024 SPF)
Compression mode : Lossy
Stream size : 215 MiB (1%)
Source stream size : 215 MiB (1%)
Language : English
Encoded date : UTC 2021-07-19 09:48:35
Tagged date : UTC 2021-07-19 09:48:35




1 个附件 售价 大小 下载 时间

有一点动心[email protected] 31.14GB.torrent 0 金币 82.54K 777 次 11天前

#1楼
发帖时间:2021-07-22 16:22:51   |   回复数:0
游客组