q3r3
一代宗师

[2021] [大陆] [爱情] [BD-4K] 有一点动心[email protected] 10.82GB

-->



◎译  名 有一点动心 / 相亲大作战
◎年  代 2021
◎产  地 中国大陆
◎类  别 爱情
◎语  言 汉语普通话
◎上映日期 2021-06-03(中国大陆)
◎IMDb链接 https://www.imdb.com/title/tt13556244/
◎豆瓣评分 4.5/10 (2732人评价)
◎豆瓣链接 https://movie.douban.com/subject/34454693/
◎片  长 94分钟
◎导  演 陈嘉上 Gordon Chan (id:1274245)
      朱雪菲 Xuefei Zhu (id:1439808)
◎编  剧 陈嘉上 Gordon Chan (id:1274245)
      吴晓洁 Xiaojie Wu (id:1426717)
      朱雪菲 Xuefei Zhu (id:1439808)
      林静璇 Jingxuan Lin (id:1439830)
◎演  员 言承旭 Jerry Yan (id:1014501)
      任素汐 Suxi Ren (id:1362973)
      柳岩 Yan Liu (id:1312846)
      戚薇 Stephy Qi (id:1313916)
      连凯 Andrew Lin (id:1122837)
      汤加文 Carmen Tong (id:1358039)
      曹扬 Yang Cao (id:1339294)
      李欣烨 Xinye Li (id:1356952)
      那威 Wei Na (id:1275600)
      李勤勤 Qinqin Li (id:1274639)
      王一宁 Yining Wang (id:1449838)
      张琛 Chen Zhang (id:1394958)
      张信哲 Jeff Chang (id:1198234)
      周丹丹 Dandan Zhou (id:1455707)

◎标  签 言承旭 / 任素汐 / 爱情 / 张信哲 / 喜剧 / 2021 / 中国大陆 / 都市

◎简  介
  周启文(言承旭 饰)创立的游戏公司因旗下员工直播的“渣男”言论引起全网声讨,被迫宣告破产,他带着兄弟们去找“始作俑者”相亲APP员工讨个说法。虽然打着成为对方客户,搅黄她们生意的坏主意,但周启文却被对方女老板陈然(任素汐 饰)安排得明明白白。在不断的相亲过程中,二人逐渐卸下了对彼此的敌意和伪装,互相的了解让二人间萌生情愫。在这越来越不敢爱的时代,周启文和陈然是会就此错过,还是能抓住命运不顾一切付出真心?

General
Complete name : 有一点动心[email protected]
Format : MPEG-4
Format profile : Base Media
Codec ID : isom (isom/iso2/mp41)
File size : 10.8 GiB
Duration : 1 h 34 min
Overall bit rate : 16.4 Mb/s
Writing application : Lavf58.32.104

Video
ID : 1
Format : HEVC
Format/Info : High Efficiency Video Coding
Format profile : [email protected]@Main
Codec ID : hev1
Codec ID/Info : High Efficiency Video Coding
Duration : 1 h 34 min
Bit rate : 16.2 Mb/s
Width : 3 840 pixels
Height : 1 608 pixels
Display aspect ratio : 2.40:1
Frame rate mode : Constant
Frame rate : 24.000 FPS
Color space : YUV
Chroma subsampling : 4:2:0
Bit depth : 8 bits
Bits/(Pixel*Frame) : 0.109
Stream size : 10.7 GiB (99%)
Codec configuration box : hvcC

Audio
ID : 2
Format : AAC LC
Format/Info : Advanced Audio Codec Low Complexity
Codec ID : mp4a-40-2
Duration : 1 h 34 min
Bit rate mode : Constant
Bit rate : 192 kb/s
Channel(s) : 2 channels
Channel layout : L R
Sampling rate : 44.1 kHz
Frame rate : 43.066 FPS (1024 SPF)
Compression mode : Lossy
Stream size : 129 MiB (1%)
Default : Yes
Alternate group : 1




1 个附件 售价 大小 下载 时间

有一点动心[email protected] 10.82GB.torrent 0 金币 31.76K 1614 次 11天前

#1楼
发帖时间:2021-07-22 16:24:29   |   回复数:0
游客组