q3r3
一代宗师

[大陆] [悬疑] 重案行动之连环凶杀[国粤语音轨].The.Case.Continuous.Homicide.2021.4K.WEB-DL.H264.AAC.2Audio-100

-->



◎译  名 重案行动之连环凶杀 / The Case · Continuous Homicide
◎年  代 2021
◎产  地 中国大陆
◎类  别 悬疑 / 犯罪
◎语  言 汉语普通话
◎上映日期 2021-07-20(中国大陆网络)
◎IMDb链接 https://www.imdb.com/title//
◎豆瓣链接 https://movie.douban.com/subject/35523253/
◎演  员 林子聪 Tze Chung Lam (id:1314402)
      姜皓文 Philip Keung Ho-Man (id:1317884)
      廖启智 Kai Chi Liu (id:1274268)

◎标  签 香港 / 犯罪 / 2021 / 林子聪 / 廖启智 / 香港电影 / 一星不值 / 悬疑

◎简  介
  香港出现神秘自杀事件, 死者在手机视频直播下自焚而死,而在场唯一的目击者却坚称自己当时失去了记忆,并且否认与自杀事件有关。警察重案组接手调查, 所有证据都指向目击者是自编自导自演, 教唆他人自杀的真凶。由于自杀视频的流出,造成公众恐慌,警队高层希望在证据确凿之下尽快结案,以释公众疑虑,但唯独督察黄一聪觉得事有蹊跷。一聪在请示上司后,决定再次对事件展开调查......

General
Unique ID : 71670589548534958684994265819020951314 (0x35EB40E26239C533E5AB8998AAFE7F12)
Complete name : 重案行动之连环凶杀.Th[email protected]BBQDDQ.COM.mkv
Format : Matroska
Format version : Version 4
File size : 20.0 GiB
Duration : 1 h 24 min
Overall bit rate : 34.0 Mb/s
Encoded date : UTC 2021-07-20 15:41:39
Writing application : mkvmerge v50.0.0 ('Awakenings') 64-bit
Writing library : libebml v1.4.0 + libmatroska v1.6.2

Video
ID : 1
Format : AVC
Format/Info : Advanced Video Codec
Format profile : [email protected]
Format settings : CABAC / 4 Ref Frames
Format settings, CABAC : Yes
Format settings, Reference frames : 4 frames
Format settings, GOP : M=4, N=24
Codec ID : V_MPEG4/ISO/AVC
Duration : 1 h 24 min
Bit rate : 33.7 Mb/s
Width : 3 840 pixels
Height : 1 640 pixels
Display aspect ratio : 2.35:1
Frame rate mode : Constant
Frame rate : 24.000 FPS
Color space : YUV
Chroma subsampling : 4:2:0
Bit depth : 8 bits
Scan type : Progressive
Bits/(Pixel*Frame) : 0.223
Stream size : 19.8 GiB (99%)
Language : Chinese
Default : Yes
Forced : No
Color range : Limited
Color primaries : BT.709
Transfer characteristics : BT.709
Matrix coefficients : BT.709

Audio #1
ID : 2
Format : AAC LC
Format/Info : Advanced Audio Codec Low Complexity
Codec ID : A_AAC-2
Duration : 1 h 24 min
Bit rate : 317 kb/s
Channel(s) : 2 channels
Channel layout : L R
Sampling rate : 48.0 kHz
Frame rate : 46.875 FPS (1024 SPF)
Compression mode : Lossy
Stream size : 191 MiB (1%)
Title : 国语
Language : Chinese
Default : Yes
Forced : No

Audio #2
ID : 3
Format : AAC LC SBR
Format/Info : Advanced Audio Codec Low Complexity with Spectral Band Replication
Commercial name : HE-AAC
Format settings : Implicit
Codec ID : A_AAC-2
Duration : 1 h 24 min
Bit rate : 62.7 kb/s
Channel(s) : 2 channels
Channel layout : L R
Sampling rate : 48.0 kHz
Frame rate : 23.438 FPS (2048 SPF)
Compression mode : Lossy
Stream size : 37.7 MiB (0%)
Title : 粤语
Language : Chinese
Default : No
Forced : No




1 个附件 售价 大小 下载 时间

重案行动之连环凶杀[国粤语音轨].Th[email protected]BBQDDQ.COM 20.01GB.torrent 0 金币 54.80K 5663 次 11天前

#1楼
发帖时间:2021-07-22 16:26:11   |   回复数:3
sjwddd
武林高手
廖启智   最后一部剧呗…………。可惜…………。

11天前 #2楼
pwolves
武林盟主
谢谢分享
11天前 #3楼
chulps
一代宗师
~ 珍惜+支持 ~
11天前 #4楼
游客组