squallzhao
武林盟主

[2020] [欧美] [剧情] [BD-4K] 左拉 Zola.2020.2160p.WEB-DL.x265.10bit.SDR.DDP5.1.Atmos-NOGRP 12.81GB

-->

帖子完整标题:左拉 Zola.2020.2160p.WEB-DL.x265.10bit.SDR.DDP5.1.Atmos-NOGRP 12.81GB



◎译  名 左拉
◎片  名 Zola
◎年  代 2020
◎产  地 美国
◎类  别 剧情 / 喜剧 / 犯罪
◎语  言 英语
◎上映日期 2020-01-24(圣丹斯电影节) / 2021-06-30(美国)
◎豆瓣评分 7.0/10 from 79 users
◎豆瓣链接 https://movie.douban.com/subject/30248520/
◎片  长 90分钟
◎导  演 加妮克扎·布拉沃 Janicza Bravo
◎编  剧 加妮克扎·布拉沃 Janicza Bravo / 安德鲁·尼尔 Andrew Neel / 迈克·罗伯茨 Mike Roberts
◎主  演 泰勒·佩姬 Taylour Paige
      丽莉·吉欧 Riley Keough
      尼尔西·索弗朗 Nelcie Souffrant
      纳西尔·拉希姆 Nasir Rahim
      阿里尔·斯泰切尔 Ari'el Stachel
      科尔曼·多明戈 Colman Domingo
      尼可拉斯·博朗 Nicholas Braun
      杰森·米切尔 Jason Mitchell
      茨·麦迪逊 Ts Madison
      安德鲁·罗马诺 Andrew Romano
      卡梅伦·布鲁姆布罗 Cameron Brumbelow
      梅根·海耶斯 Megan Hayes
      Dania Vizzi Dania Vizzi
      Steve Warren Steve Warren

◎标  签 美国 | A24 | 2020 | 剧情 | 美国电影 | 欧美 | 美國 | 电影

◎简  介

  讲述一名年轻的充满异域风情的舞者同意与一名妓女、她的男友和一名皮条客一起踏上前往弗罗里达的旅行,在途中,她收获到了比想象中更多的东西。

◎获奖情况

  第36届圣丹斯电影节 ?(2020)
  评审团大奖剧情片(提名) 加妮克扎·布拉沃

Video
ID : 1
Format : HEVC
Format/Info : High Efficiency Video Coding
Format profile : Main [email protected]@High
Codec ID : V_MPEGH/ISO/HEVC
Duration : 1 h 25 min
Bit rate : 20.6 Mb/s
Width : 3 836 pixels
Height : 2 072 pixels
Display aspect ratio : 1.85:1
Frame rate mode : Constant
Frame rate : 23.976 FPS
Color space : YUV
Chroma subsampling : 4:2:0
Bit depth : 10 bits
Bits/(Pixel*Frame) : 0.108
Stream size : 12.3 GiB (96%)
Language : English
Default : Yes
Forced : No
Color range : Limited
Color primaries : BT.709
Transfer characteristics : BT.709
Matrix coefficients : BT.709

Audio
ID : 2
Format : E-AC-3 JOC
Format/Info : Enhanced AC-3 with Joint Object Coding
Commercial name : Dolby Digital Plus with Dolby Atmos
Codec ID : A_EAC3
Duration : 1 h 25 min
Bit rate mode : Constant
Bit rate : 768 kb/s
Channel(s) : 6 channels
Channel layout : L R C LFE Ls Rs
Sampling rate : 48.0 kHz
Frame rate : 31.250 FPS (1536 SPF)
Compression mode : Lossy
Stream size : 472 MiB (4%)
Title : English
Language : English
Service kind : Complete Main
Default : No
Forced : No
Complexity index : 16
Number of dynamic objects : 15
Bed channel count : 1 channel
Bed channel configuration : LFE

Text
ID : 3
Format : UTF-8
Codec ID : S_TEXT/UTF8
Codec ID/Info : UTF-8 Plain Text
Duration : 1 h 20 min
Bit rate : 59 b/s
Count of elements : 1173
Stream size : 35.1 KiB (0%)
Language : English
Default : Yes
Forced : No





1 个附件 售价 大小 下载 时间

Zola.2020.2160p.WEB-DL.x265.10bit.SDR.DDP5.1.Atmos-NOGRP.torrent 0 金币 16.64K 1148 次 11天前

#1楼
发帖时间:2021-07-22 18:55:42   |   回复数:1
liyouchai
隐世仙人♂
谢谢楼主分享资源
11天前 #2楼
游客组