squallzhao
武林盟主

[2018] [其他] [喜剧] [WEB-1080P] 金属之心 Metal.Heart.2018.1080p.AMZN.WEBRip.DDP5.1.x264-SPEKT0R 2.80GB

-->

帖子完整标题:金属之心 Metal.Heart.2018.1080p.AMZN.WEBRip.DDP5.1.x264-SPEKT0R 2.80GB



◎译  名 金属之心
◎片  名 Metal Heart
◎年  代 2018
◎产  地 爱尔兰
◎类  别 喜剧 / 爱情
◎语  言 英语
◎上映日期 2018-07-14(爱尔兰)
◎豆瓣评分 /10 from 0 users
◎豆瓣链接 https://movie.douban.com/subject/33407372/
◎主  演 莉亚·麦克纳玛拉 Leah McNamara

◎标  签 爱尔兰 | 2019 | 青春 | 爱尔兰电影

◎简  介

  Fraternal twin sisters Emma and Chantal are worlds apart. Emma is self conscious, and unsure of which path to take in life - she dreams of starting a band (they have a pie-chart) with her best friend Gary, who secretly has a crush on her. Chantal, meanwhile, is beautiful, confident, and knows exactly where her life is headed. When their parents go away for the summer, their simmering sibling rivalry threatens to boil over, especially when the mysterious boy next door moves back in - Metal Heart is a laugh-out-loud coming of age comedy-drama about family and growing up, while also being poignant, sophisticated and wise.

Video
ID : 1
Format : AVC
Format/Info : Advanced Video Codec
Format profile : [email protected]
Format settings : CABAC / 4 Ref Frames
Format settings, CABAC : Yes
Format settings, Reference frames : 4 frames
Codec ID : V_MPEG4/ISO/AVC
Duration : 1 h 28 min
Bit rate : 3 898 kb/s
Width : 1 920 pixels
Height : 816 pixels
Display aspect ratio : 2.35:1
Frame rate mode : Constant
Frame rate : 25.000 FPS
Color space : YUV
Chroma subsampling : 4:2:0
Bit depth : 8 bits
Scan type : Progressive
Bits/(Pixel*Frame) : 0.100
Stream size : 2.40 GiB (86%)
Language : English
Default : Yes
Forced : No
Color range : Limited
Color primaries : BT.709
Transfer characteristics : BT.709
Matrix coefficients : BT.709

Audio
ID : 2
Format : E-AC-3
Format/Info : Enhanced AC-3
Commercial name : Dolby Digital Plus
Codec ID : A_EAC3
Duration : 1 h 28 min
Bit rate mode : Constant
Bit rate : 640 kb/s
Channel(s) : 6 channels
Channel layout : L R C LFE Ls Rs
Sampling rate : 48.0 kHz
Frame rate : 31.250 FPS (1536 SPF)
Compression mode : Lossy
Stream size : 404 MiB (14%)
Language : English
Service kind : Complete Main
Default : Yes
Forced : No





1 个附件 售价 大小 下载 时间

Metal.Heart.2018.1080p.AMZN.WEBRip.DDP5.1.x264-SPEKT0R.torrent 0 金币 28.59K 329 次 11天前

#1楼
发帖时间:2021-07-22 19:22:09   |   回复数:0
游客组