squallzhao
武林盟主

[2020] [其他] [恐怖] [WEB-1080P] 恶灵坎蒂莎 Kandisha.2020.FRENCH.ENSUBBED.1080p.AMZN.WEBRip.DDP2.0.x264-NOGRP 4.41GB

-->

帖子完整标题:恶灵坎蒂莎 Kandisha.2020.FRENCH.ENSUBBED.1080p.AMZN.WEBRip.DDP2.0.x264-NOGRP 4.41GB



◎译  名 恶灵坎蒂莎
◎片  名 Kandisha
◎年  代 2020
◎产  地 法国
◎类  别 恐怖
◎语  言 法语
◎上映日期 2021-07-22(美国)
◎豆瓣评分 /10 from 0 users
◎豆瓣链接 https://movie.douban.com/subject/34954341/
◎导  演 朱利安·莫利 Julien Maury / 亚历山大·布斯蒂罗 Alexandre Bustillo
◎编  剧 朱利安·莫利 Julien Maury / 亚历山大·布斯蒂罗 Alexandre Bustillo
◎主  演 纳西姆·斯艾哈迈德 Nassim Si Ahmed

◎标  签 法国 | 恐怖 | WK | 2020

◎简  介

  It is summer break and best friends Amélie, Bintou and Morjana hang together with the neighborhood teenagers. At night, they have fun sharing goosebumps stories and urban legends. But when Amélie is assaulted by her ex, she remembers the story of Kandisha, a powerful and vengeful demon. Afraid, upset, she summons her. The next day, her ex is found dead. The legend is true and now Kandisha in on a killing spree. The three girls will do anything to break the curse.

Video
ID : 1
Format : AVC
Format/Info : Advanced Video Codec
Format profile : [email protected]
Format settings : CABAC / 4 Ref Frames
Format settings, CABAC : Yes
Format settings, Reference frames : 4 frames
Codec ID : V_MPEG4/ISO/AVC
Duration : 1 h 24 min
Bit rate mode : Constant
Bit rate : 7 229 kb/s
Nominal bit rate : 10 000 kb/s
Width : 1 920 pixels
Height : 800 pixels
Display aspect ratio : 2.40:1
Frame rate mode : Constant
Frame rate : 24.000 FPS
Color space : YUV
Chroma subsampling : 4:2:0
Bit depth : 8 bits
Scan type : Progressive
Bits/(Pixel*Frame) : 0.196
Stream size : 4.27 GiB (97%)
Default : Yes
Forced : No
Color range : Limited
Color primaries : BT.709
Transfer characteristics : BT.709
Matrix coefficients : BT.709

Audio
ID : 2
Format : E-AC-3
Format/Info : Enhanced AC-3
Commercial name : Dolby Digital Plus
Codec ID : A_EAC3
Duration : 1 h 24 min
Bit rate mode : Constant
Bit rate : 224 kb/s
Channel(s) : 2 channels
Channel layout : L R
Sampling rate : 48.0 kHz
Frame rate : 31.250 FPS (1536 SPF)
Compression mode : Lossy
Stream size : 136 MiB (3%)
Language : French
Service kind : Complete Main
Default : Yes
Forced : No





1 个附件 售价 大小 下载 时间

Kandisha.2020.FRENCH.ENSUBBED.1080p.AMZN.WEBRip.DDP2.0.x264-NOGRP.torrent 0 金币 22.68K 945 次 11天前

#1楼
发帖时间:2021-07-22 19:26:02   |   回复数:0
游客组