squallzhao
武林盟主

[2017] [其他] [喜剧] [WEB-1080P] 愿上帝降临 Holy.Goalie.2017.SPANISH.1080p.NF.WEBRip.DDP5.1.x264-playWEB 2.52GB

-->

帖子完整标题:愿上帝降临 Holy.Goalie.2017.SPANISH.1080p.NF.WEBRip.DDP5.1.x264-playWEB 2.52GB



◎译  名 愿上帝降临/Holy Goalie
◎片  名 Que baje Dios y lo vea
◎年  代 2017
◎产  地 西班牙
◎类  别 喜剧
◎语  言 西班牙语
◎上映日期 2017-11-10(西班牙)
◎豆瓣评分 /10 from 0 users
◎豆瓣链接 https://movie.douban.com/subject/27035675/
◎片  长 95分钟
◎主  演 玛卡莲娜·加西亚 Macarena García
      卡拉·埃莱哈尔德 Karra Elejalde

◎标  签 西班牙 | 喜剧 | 足球 | 宗教 | 2017 | 耶稣基督 | 移动 | 欧洲俄罗斯南北美澳洲新西兰等

◎简  介

  When the monks living at a small rural monastery face it being transformed into a hotel due to the lack of income, a newcomer monk convinces them their only chance is teaching them soccer

Video
ID : 1
Format : AVC
Format/Info : Advanced Video Codec
Format profile : [email protected]
Format settings : CABAC / 3 Ref Frames
Format settings, CABAC : Yes
Format settings, Reference frames : 3 frames
Codec ID : V_MPEG4/ISO/AVC
Duration : 1 h 35 min
Bit rate mode : Variable
Bit rate : 3 143 kb/s
Nominal bit rate : 2 349 kb/s
Maximum bit rate : 6 630 kb/s
Width : 1 920 pixels
Height : 1 080 pixels
Display aspect ratio : 16:9
Frame rate mode : Constant
Frame rate : 24.000 FPS
Color space : YUV
Chroma subsampling : 4:2:0
Bit depth : 8 bits
Scan type : Progressive
Bits/(Pixel*Frame) : 0.063
Stream size : 2.09 GiB (83%)
Writing library : x264 core 148 r2722 1b0121b
Encoding settings : cabac=1 / ref=3 / deblock=1:0:0 / analyse=0x1:0x111 / me=umh / subme=10 / psy=1 / psy_rd=1.00:0.00 / mixed_ref=1 / me_range=24 / chroma_me=1 / trellis=2 / 8x8dct=0 / cqm=0 / deadzone=21,11 / fast_pskip=1 / chroma_qp_offset=-2 / threads=8 / lookahead_threads=1 / sliced_threads=0 / nr=0 / decimate=1 / interlaced=0 / bluray_compat=0 / stitchable=1 / constrained_intra=0 / bframes=2 / b_pyramid=0 / b_adapt=2 / b_bias=0 / direct=3 / weightb=1 / open_gop=0 / weightp=2 / keyint=48 / keyint_min=25 / scenecut=0 / intra_refresh=0 / rc_lookahead=48 / rc=2pass / mbtree=1 / bitrate=2349 / ratetol=1.0 / qcomp=0.50 / qpmin=6 / qpmax=51 / qpstep=4 / cplxblur=20.0 / qblur=0.5 / vbv_maxrate=6630 / vbv_bufsize=8840 / nal_hrd=vbr / filler=0 / ip_ratio=1.40 / aq=1:1.00
Default : Yes
Forced : No

Audio
ID : 2
Format : E-AC-3
Format/Info : Enhanced AC-3
Commercial name : Dolby Digital Plus
Codec ID : A_EAC3
Duration : 1 h 35 min
Bit rate mode : Constant
Bit rate : 640 kb/s
Channel(s) : 6 channels
Channel layout : L R C LFE Ls Rs
Sampling rate : 48.0 kHz
Frame rate : 31.250 FPS (1536 SPF)
Compression mode : Lossy
Stream size : 437 MiB (17%)
Language : Spanish
Service kind : Complete Main
Default : Yes
Forced : No

Text #1
ID : 3
Format : UTF-8
Codec ID : S_TEXT/UTF8
Codec ID/Info : UTF-8 Plain Text
Duration : 1 h 34 min
Bit rate : 79 b/s
Count of elements : 1621
Stream size : 55.3 KiB (0%)
Title : Espa?ol (Europa) (SDH)
Language : Spanish
Default : No
Forced : No

Text #2
ID : 4
Format : UTF-8
Codec ID : S_TEXT/UTF8
Codec ID/Info : UTF-8 Plain Text
Duration : 1 h 34 min
Bit rate : 113 b/s
Count of elements : 1514
Stream size : 78.4 KiB (0%)
Title : ???????
Language : Arabic
Default : No
Forced : No

Text #3
ID : 5
Format : UTF-8
Codec ID : S_TEXT/UTF8
Codec ID/Info : UTF-8 Plain Text
Duration : 1 h 34 min
Bit rate : 58 b/s
Count of elements : 1508
Stream size : 40.5 KiB (0%)
Title : Dansk
Language : Danish
Default : No
Forced : No

Text #4
ID : 6
Format : UTF-8
Codec ID : S_TEXT/UTF8
Codec ID/Info : UTF-8 Plain Text
Duration : 1 h 34 min
Bit rate : 62 b/s
Count of elements : 1508
Stream size : 43.4 KiB (0%)
Title : Deutsch
Language : German
Default : No
Forced : No

Text #5
ID : 7
Format : UTF-8
Codec ID : S_TEXT/UTF8
Codec ID/Info : UTF-8 Plain Text
Duration : 1 h 34 min
Bit rate : 106 b/s
Count of elements : 1486
Stream size : 73.6 KiB (0%)
Title : Ελληνικ?
Language : Greek
Default : No
Forced : No

Text #6
ID : 8
Format : UTF-8
Codec ID : S_TEXT/UTF8
Codec ID/Info : UTF-8 Plain Text
Duration : 1 h 33 min
Bit rate : 65 b/s
Count of elements : 1597
Stream size : 45.1 KiB (0%)
Title : English
Language : English
Default : No
Forced : No

Text #7
ID : 9
Format : UTF-8
Codec ID : S_TEXT/UTF8
Codec ID/Info : UTF-8 Plain Text
Duration : 1 h 34 min
Bit rate : 61 b/s
Count of elements : 1145
Stream size : 42.5 KiB (0%)
Title : Suomi
Language : Finnish
Default : No
Forced : No

Text #8
ID : 10
Format : UTF-8
Codec ID : S_TEXT/UTF8
Codec ID/Info : UTF-8 Plain Text
Duration : 1 h 34 min
Bit rate : 65 b/s
Count of elements : 1468
Stream size : 45.4 KiB (0%)
Title : Fran?ais
Language : French
Default : No
Forced : No

Text #9
ID : 11
Format : UTF-8
Codec ID : S_TEXT/UTF8
Codec ID/Info : UTF-8 Plain Text
Duration : 1 h 34 min
Bit rate : 102 b/s
Count of elements : 1514
Stream size : 70.6 KiB (0%)
Title : ?????
Language : Hebrew
Default : No
Forced : No

Text #10
ID : 12
Format : UTF-8
Codec ID : S_TEXT/UTF8
Codec ID/Info : UTF-8 Plain Text
Duration : 1 h 34 min
Bit rate : 60 b/s
Count of elements : 1477
Stream size : 41.6 KiB (0%)
Title : Italiano
Language : Italian
Default : No
Forced : No

Text #11
ID : 13
Format : UTF-8
Codec ID : S_TEXT/UTF8
Codec ID/Info : UTF-8 Plain Text
Duration : 1 h 34 min
Bit rate : 57 b/s
Count of elements : 1403
Stream size : 39.7 KiB (0%)
Title : 日本語
Language : Japanese
Default : No
Forced : No

Text #12
ID : 14
Format : UTF-8
Codec ID : S_TEXT/UTF8
Codec ID/Info : UTF-8 Plain Text
Duration : 1 h 34 min
Bit rate : 72 b/s
Count of elements : 1512
Stream size : 50.1 KiB (0%)
Title : ???
Language : Korean
Default : No
Forced : No

Text #13
ID : 15
Format : UTF-8
Codec ID : S_TEXT/UTF8
Codec ID/Info : UTF-8 Plain Text
Duration : 1 h 34 min
Bit rate : 60 b/s
Count of elements : 1423
Stream size : 41.7 KiB (0%)
Title : Norsk Bokm?l
Language : Norwegian Bokmal
Default : No
Forced : No

Text #14
ID : 16
Format : UTF-8
Codec ID : S_TEXT/UTF8
Codec ID/Info : UTF-8 Plain Text
Duration : 1 h 34 min
Bit rate : 60 b/s
Count of elements : 1439
Stream size : 42.0 KiB (0%)
Title : Nederlands
Language : Dutch
Default : No
Forced : No

Text #15
ID : 17
Format : UTF-8
Codec ID : S_TEXT/UTF8
Codec ID/Info : UTF-8 Plain Text
Duration : 1 h 34 min
Bit rate : 61 b/s
Count of elements : 1483
Stream size : 42.7 KiB (0%)
Title : Polski
Language : Polish
Default : No
Forced : No

Text #16
ID : 18
Format : UTF-8
Codec ID : S_TEXT/UTF8
Codec ID/Info : UTF-8 Plain Text
Duration : 1 h 34 min
Bit rate : 63 b/s
Count of elements : 1503
Stream size : 44.2 KiB (0%)
Title : Português (Brasil)
Language : Portuguese
Default : No
Forced : No

Text #17
ID : 19
Format : UTF-8
Codec ID : S_TEXT/UTF8
Codec ID/Info : UTF-8 Plain Text
Duration : 1 h 34 min
Bit rate : 64 b/s
Count of elements : 1500
Stream size : 44.3 KiB (0%)
Title : Roman?
Language : Romanian
Default : No
Forced : No

Text #18
ID : 20
Format : UTF-8
Codec ID : S_TEXT/UTF8
Codec ID/Info : UTF-8 Plain Text
Duration : 1 h 34 min
Bit rate : 58 b/s
Count of elements : 1415
Stream size : 40.7 KiB (0%)
Title : Svenska
Language : Swedish
Default : No
Forced : No

Text #19
ID : 21
Format : UTF-8
Codec ID : S_TEXT/UTF8
Codec ID/Info : UTF-8 Plain Text
Duration : 1 h 34 min
Bit rate : 163 b/s
Count of elements : 1514
Stream size : 113 KiB (0%)
Title : ???
Language : Thai
Default : No
Forced : No

Text #20
ID : 22
Format : UTF-8
Codec ID : S_TEXT/UTF8
Codec ID/Info : UTF-8 Plain Text
Duration : 1 h 34 min
Bit rate : 67 b/s
Count of elements : 1513
Stream size : 46.6 KiB (0%)
Title : Türk?e
Language : Turkish
Default : No
Forced : No

Text #21
ID : 23
Format : UTF-8
Codec ID : S_TEXT/UTF8
Codec ID/Info : UTF-8 Plain Text
Duration : 1 h 34 min
Bit rate : 59 b/s
Count of elements : 1514
Stream size : 41.5 KiB (0%)
Title : 中文(简体)
Language : Chinese
Default : No
Forced : No

Text #22
ID : 24
Format : UTF-8
Codec ID : S_TEXT/UTF8
Codec ID/Info : UTF-8 Plain Text
Duration : 1 h 34 min
Bit rate : 60 b/s
Count of elements : 1513
Stream size : 41.8 KiB (0%)
Title : 中文(繁體)
Language : Chinese
Default : No
Forced : No

Text #23
ID : 25
Format : UTF-8
Codec ID : S_TEXT/UTF8
Codec ID/Info : UTF-8 Plain Text
Duration : 1 h 34 min
Bit rate : 1 b/s
Count of elements : 49
Stream size : 1.33 KiB (0%)
Title : Espa?ol (Forced)
Language : Spanish
Default : Yes
Forced : Yes





1 个附件 售价 大小 下载 时间

Holy.Goalie.2017.SPANISH.1080p.NF.WEBRip.DDP5.1.x264-playWEB.torrent 0 金币 25.87K 371 次 11天前

#1楼
发帖时间:2021-07-22 19:28:00   |   回复数:0
游客组