topgood
武林高手

[2019] [欧美] [剧情] [BD-4K] 布鲁克林秘案/布鲁克林孤儿 Motherless.Brooklyn.2019.2160p.WEB-DL.DDP5.1.DV.MP4.x265-NOGRP 15.

-->

帖子完整标题:布鲁克林秘案/布鲁克林孤儿 Motherless.Brooklyn.2019.2160p.WEB-DL.DDP5.1.DV.MP4.x265-NOGRP 15.03GB



◎译  名 布鲁克林秘案/布鲁克林孤儿(台)/布鲁克林的流浪儿/无母之城(港)
◎片  名 Motherless Brooklyn
◎年  代 2019
◎产  地 美国
◎类  别 剧情 / 犯罪
◎语  言 英语,法语
◎上映日期 2019-08-30(特柳赖德电影节) / 2019-09-10(多伦多电影节) / 2019-11-01(美国)
◎豆瓣评分 7.0/10 from 17051 users
◎豆瓣链接 https://movie.douban.com/subject/1469353/
◎片  长 144分钟
◎导  演 爱德华·诺顿 Edward Norton
◎编  剧 爱德华·诺顿 Edward Norton / 乔纳森·勒瑟姆 Jonathan Lethem
◎主  演 爱德华·诺顿 Edward Norton
      古古·姆巴塔-劳 Gugu Mbatha-Raw
      亚历克·鲍德温 Alec Baldwin
      鲍比·坎纳瓦尔 Bobby Cannavale
      威廉·达福 Willem Dafoe
      布鲁斯·威利斯 Bruce Willis
      伊桑·苏普利 Ethan Suplee
      切莉·琼斯 Cherry Jones
      达拉斯·罗伯特斯 Dallas Roberts
      乔什·帕斯 Josh Pais
      拉杜·斯平格尔 Radu Spinghel
      费舍·史蒂芬斯 Fisher Stevens
      罗伯特·维斯多姆 Robert Wisdom
      迈克尔·肯尼斯·威廉姆斯 Michael Kenneth Williams
      埃里克·贝瑞曼 Eric Berryman
      尼尔森·艾维登 Nelson Avidon
      莱斯利·曼恩 Leslie Mann
      凯蒂·戴维斯 Katy Davis
      奥利·哈斯基维 Olli Haaskivi
      黛博拉·安格 Deborah Unger
      埃兹拉·巴恩斯 Ezra Barnes
      斯蒂芬·阿德利·葛尔盖 Stephen Adly Guirgis
      拉塞尔·G·琼斯 Russell G. Jones
      布莱斯·科里根 Blaise Corrigan
      列尼斯·德洛桑托斯 Leonys Delossantos
      桃乐丝·麦卡锡 Doris McCarthy
      罗伯特·迈尔斯 Robert Myers
      艾丽卡·斯维尼 Erica Sweany
      莱恩·瓦莱丽 Lynne Valley

◎标  签 美国 | 犯罪 | 悬疑 | 剧情 | 2019 | 小说改编 | 黑色幽默 | 人性

◎简  介

  莱昂内尔(爱德华·诺顿 Edward Norton 饰)有着非常悲惨的过去,母亲在他很小的时候就撒手人寰,无依无靠的莱昂内尔被送进了孤儿院,幸运的是,在这里,他遇见了名为弗兰克(布鲁斯·威利斯 Bruce Willis 饰)的男子,在孤儿院里摸爬滚打这么多年,弗兰克一直对莱昂内尔提供着保护和帮助。离开孤儿院后,弗兰克成立了一家私人侦探所,莱昂纳尔则在其中打工。
  
  某日,弗兰克去送一份非常危险而又神秘的文件,哪知道这个任务让他丢掉了性命。弗兰克的死给莱昂内尔带来了巨大的打击,但现在还不是哀悼的时候,莱昂内尔决定查出这场死亡时间背后的真相,为老友讨回一个公道。

◎获奖情况

  第77届金球奖 ?(2020)
  电影类最佳原创配乐(提名) 丹尼尔·彭博顿
  
  第18届美国视觉效果协会奖 ?(2020)
  最佳真人电影CG背景(提名)
  
  第24届金卫星奖 ?(2020)
  电影部门最佳改编剧本(提名) 爱德华·诺顿
  电影部门最佳摄影(提名)
  电影部门最佳美术指导
  
  第40届伦敦影评人协会奖 ?(2020)
  技术成就奖(提名) 丹尼尔·彭博顿

Video
ID : 1
Format : HEVC
Format/Info : High Efficiency Video Coding
Format profile : Main [email protected]@High
HDR format : Dolby Vision, Version 1.0, dvhe.05.06, BL+RPU
Codec ID : dvhe
Codec ID/Info : High Efficiency Video Coding with Dolby Vision
Duration : 2 h 24 min
Bit rate : 14.5 Mb/s
Width : 3 840 pixels
Height : 2 072 pixels
Display aspect ratio : 1.85:1
Frame rate mode : Constant
Frame rate : 23.976 (24000/1001/189150) FPS
Color space : YUV
Chroma subsampling : 4:2:0
Bit depth : 10 bits
Bits/(Pixel*Frame) : 0.076
Stream size : 14.6 GiB (97%)
Default : Yes
Alternate group : 1
Encoded date : UTC 2021-07-20 08:49:18
Tagged date : UTC 2021-07-20 10:39:10
Codec configuration box : hvcC+dvcC

Audio
ID : 2
Format : AC-3
Format/Info : Audio Coding 3
Commercial name : Dolby Digital
Codec ID : ac-3
Duration : 2 h 24 min
Bit rate mode : Constant
Bit rate : 384 kb/s
Maximum bit rate : 406 kb/s
Channel(s) : 6 channels
Channel layout : L R C LFE Ls Rs
Sampling rate : 48.0 kHz
Frame rate : 31.250 FPS (1536 SPF)
Compression mode : Lossy
Stream size : 396 MiB (3%)
Title : English
Language : English
Service kind : Complete Main
Encoded date : UTC 2021-07-20 08:23:11
Tagged date : UTC 2021-07-20 10:39:10

Text
ID : 3
Format : Timed Text
Codec ID : tx3g
Duration : 2 h 17 min
Bit rate mode : Variable
Bit rate : 100 b/s
Stream size : 100 KiB (0%)
Title : English
Language : English
Forced : No
Encoded date : UTC 2021-07-20 10:39:09
Tagged date : UTC 2021-07-20 10:39:10





1 个附件 售价 大小 下载 时间

Motherless.Brooklyn.2019.2160p.WEB-DL.DDP5.1.DV.MP4.x265-NOGRP.torrent 0 金币 19.43K 868 次 11天前

#1楼
发帖时间:2021-07-22 20:59:06   |   回复数:2
liyouchai
隐世仙人♂
谢谢楼主分享资源
11天前 #2楼
chulps
一代宗师
~ 珍惜+支持 ~
11天前 #3楼
游客组