topgood
武林高手

[2019] [欧美] [剧情] [BD-4K] 布鲁克林秘案/布鲁克林孤儿 Motherless.Brooklyn.2019.2160p.WEB-DL.x265.10bit.HDR.DTS-HD.MA.5.1

-->

帖子完整标题:布鲁克林秘案/布鲁克林孤儿 Motherless.Brooklyn.2019.2160p.WEB-DL.x265.10bit.HDR.DTS-HD.MA.5.1-SWTYBLZ 17.42GB



◎译  名 布鲁克林秘案/布鲁克林孤儿(台)/布鲁克林的流浪儿/无母之城(港)
◎片  名 Motherless Brooklyn
◎年  代 2019
◎产  地 美国
◎类  别 剧情 / 犯罪
◎语  言 英语,法语
◎上映日期 2019-08-30(特柳赖德电影节) / 2019-09-10(多伦多电影节) / 2019-11-01(美国)
◎豆瓣评分 7.0/10 from 17051 users
◎豆瓣链接 https://movie.douban.com/subject/1469353/
◎片  长 144分钟
◎导  演 爱德华·诺顿 Edward Norton
◎编  剧 爱德华·诺顿 Edward Norton / 乔纳森·勒瑟姆 Jonathan Lethem
◎主  演 爱德华·诺顿 Edward Norton
      古古·姆巴塔-劳 Gugu Mbatha-Raw
      亚历克·鲍德温 Alec Baldwin
      鲍比·坎纳瓦尔 Bobby Cannavale
      威廉·达福 Willem Dafoe
      布鲁斯·威利斯 Bruce Willis
      伊桑·苏普利 Ethan Suplee
      切莉·琼斯 Cherry Jones
      达拉斯·罗伯特斯 Dallas Roberts
      乔什·帕斯 Josh Pais
      拉杜·斯平格尔 Radu Spinghel
      费舍·史蒂芬斯 Fisher Stevens
      罗伯特·维斯多姆 Robert Wisdom
      迈克尔·肯尼斯·威廉姆斯 Michael Kenneth Williams
      埃里克·贝瑞曼 Eric Berryman
      尼尔森·艾维登 Nelson Avidon
      莱斯利·曼恩 Leslie Mann
      凯蒂·戴维斯 Katy Davis
      奥利·哈斯基维 Olli Haaskivi
      黛博拉·安格 Deborah Unger
      埃兹拉·巴恩斯 Ezra Barnes
      斯蒂芬·阿德利·葛尔盖 Stephen Adly Guirgis
      拉塞尔·G·琼斯 Russell G. Jones
      布莱斯·科里根 Blaise Corrigan
      列尼斯·德洛桑托斯 Leonys Delossantos
      桃乐丝·麦卡锡 Doris McCarthy
      罗伯特·迈尔斯 Robert Myers
      艾丽卡·斯维尼 Erica Sweany
      莱恩·瓦莱丽 Lynne Valley

◎标  签 美国 | 犯罪 | 悬疑 | 剧情 | 2019 | 小说改编 | 黑色幽默 | 人性

◎简  介

  莱昂内尔(爱德华·诺顿 Edward Norton 饰)有着非常悲惨的过去,母亲在他很小的时候就撒手人寰,无依无靠的莱昂内尔被送进了孤儿院,幸运的是,在这里,他遇见了名为弗兰克(布鲁斯·威利斯 Bruce Willis 饰)的男子,在孤儿院里摸爬滚打这么多年,弗兰克一直对莱昂内尔提供着保护和帮助。离开孤儿院后,弗兰克成立了一家私人侦探所,莱昂纳尔则在其中打工。
  
  某日,弗兰克去送一份非常危险而又神秘的文件,哪知道这个任务让他丢掉了性命。弗兰克的死给莱昂内尔带来了巨大的打击,但现在还不是哀悼的时候,莱昂内尔决定查出这场死亡时间背后的真相,为老友讨回一个公道。

◎获奖情况

  第77届金球奖 ?(2020)
  电影类最佳原创配乐(提名) 丹尼尔·彭博顿
  
  第18届美国视觉效果协会奖 ?(2020)
  最佳真人电影CG背景(提名)
  
  第24届金卫星奖 ?(2020)
  电影部门最佳改编剧本(提名) 爱德华·诺顿
  电影部门最佳摄影(提名)
  电影部门最佳美术指导
  
  第40届伦敦影评人协会奖 ?(2020)
  技术成就奖(提名) 丹尼尔·彭博顿

Video
ID : 1
Format : HEVC
Format/Info : High Efficiency Video Coding
Format profile : Main [email protected]@High
HDR format : SMPTE ST 2086, HDR10 compatible
Codec ID : V_MPEGH/ISO/HEVC
Duration : 2 h 24 min
Bit rate : 14.5 Mb/s
Width : 3 840 pixels
Height : 2 072 pixels
Display aspect ratio : 1.85:1
Frame rate mode : Constant
Frame rate : 23.976 FPS
Color space : YUV
Chroma subsampling : 4:2:0 (Type 2)
Bit depth : 10 bits
Bits/(Pixel*Frame) : 0.076
Stream size : 14.6 GiB (84%)
Language : English
Default : Yes
Forced : No
Color range : Limited
Color primaries : BT.2020
Transfer characteristics : PQ
Matrix coefficients : BT.2020 non-constant
Mastering display color primaries : BT.2020
Mastering display luminance : min: 0.0050 cd/m2, max: 1000 cd/m2
Maximum Content Light Level : 779 cd/m2
Maximum Frame-Average Light Level : 437 cd/m2

Audio #1
ID : 2
Format : DTS XLL
Format/Info : Digital Theater Systems
Commercial name : DTS-HD Master Audio
Codec ID : A_DTS
Duration : 2 h 24 min
Bit rate mode : Variable
Bit rate : 2 163 kb/s
Channel(s) : 6 channels
Channel layout : C L R Ls Rs LFE
Sampling rate : 48.0 kHz
Frame rate : 93.750 FPS (512 SPF)
Bit depth : 16 bits
Compression mode : Lossless
Delay relative to video : 5 ms
Stream size : 2.18 GiB (13%)
Title : DTS-HD MA 5.1
Language : English
Default : Yes
Forced : No

Audio #2
ID : 3
Format : AC-3
Format/Info : Audio Coding 3
Commercial name : Dolby Digital
Codec ID : A_AC3
Duration : 2 h 24 min
Bit rate mode : Constant
Bit rate : 640 kb/s
Channel(s) : 6 channels
Channel layout : L R C LFE Ls Rs
Sampling rate : 48.0 kHz
Frame rate : 31.250 FPS (1536 SPF)
Compression mode : Lossy
Stream size : 661 MiB (4%)
Title : DD 5.1
Language : English
Service kind : Complete Main
Default : No
Forced : No

Text #1
ID : 4
Format : UTF-8
Codec ID : S_TEXT/UTF8
Codec ID/Info : UTF-8 Plain Text
Duration : 2 h 16 min
Bit rate : 87 b/s
Count of elements : 2738
Stream size : 86.9 KiB (0%)
Title : SDH
Language : English
Default : Yes
Forced : No

Text #2
ID : 5
Format : UTF-8
Codec ID : S_TEXT/UTF8
Codec ID/Info : UTF-8 Plain Text
Duration : 2 h 23 min
Bit rate : 119 b/s
Count of elements : 2358
Stream size : 126 KiB (0%)
Language : Arabic
Default : No
Forced : No

Text #3
ID : 6
Format : UTF-8
Codec ID : S_TEXT/UTF8
Codec ID/Info : UTF-8 Plain Text
Duration : 2 h 23 min
Bit rate : 102 b/s
Count of elements : 2310
Stream size : 108 KiB (0%)
Language : Bulgarian
Default : No
Forced : No

Text #4
ID : 7
Format : UTF-8
Codec ID : S_TEXT/UTF8
Codec ID/Info : UTF-8 Plain Text
Duration : 2 h 23 min
Bit rate : 70 b/s
Count of elements : 2356
Stream size : 74.0 KiB (0%)
Title : 中文(简体)
Language : Chinese
Default : No
Forced : No

Text #5
ID : 8
Format : UTF-8
Codec ID : S_TEXT/UTF8
Codec ID/Info : UTF-8 Plain Text
Duration : 2 h 16 min
Bit rate : 60 b/s
Count of elements : 2055
Stream size : 60.0 KiB (0%)
Title : 中文(繁體)
Language : Chinese
Default : No
Forced : No

Text #6
ID : 9
Format : UTF-8
Codec ID : S_TEXT/UTF8
Codec ID/Info : UTF-8 Plain Text
Duration : 2 h 23 min
Bit rate : 58 b/s
Count of elements : 2306
Stream size : 61.7 KiB (0%)
Title : 粵語 (繁體)
Language : Chinese
Default : No
Forced : No

Text #7
ID : 10
Format : UTF-8
Codec ID : S_TEXT/UTF8
Codec ID/Info : UTF-8 Plain Text
Duration : 2 h 23 min
Bit rate : 66 b/s
Count of elements : 2287
Stream size : 69.4 KiB (0%)
Language : Czech
Default : No
Forced : No

Text #8
ID : 11
Format : UTF-8
Codec ID : S_TEXT/UTF8
Codec ID/Info : UTF-8 Plain Text
Duration : 2 h 23 min
Bit rate : 73 b/s
Count of elements : 2343
Stream size : 77.4 KiB (0%)
Language : Danish
Default : No
Forced : No

Text #9
ID : 12
Format : UTF-8
Codec ID : S_TEXT/UTF8
Codec ID/Info : UTF-8 Plain Text
Duration : 2 h 24 min
Bit rate : 74 b/s
Count of elements : 1833
Stream size : 78.4 KiB (0%)
Title : SDH
Language : German
Default : No
Forced : No

Text #10
ID : 13
Format : UTF-8
Codec ID : S_TEXT/UTF8
Codec ID/Info : UTF-8 Plain Text
Duration : 2 h 23 min
Bit rate : 113 b/s
Count of elements : 2283
Stream size : 119 KiB (0%)
Language : Greek
Default : No
Forced : No

Text #11
ID : 14
Format : UTF-8
Codec ID : S_TEXT/UTF8
Codec ID/Info : UTF-8 Plain Text
Duration : 2 h 23 min
Bit rate : 75 b/s
Count of elements : 2303
Stream size : 79.1 KiB (0%)
Title : Latin American
Language : Spanish
Default : No
Forced : No

Text #12
ID : 15
Format : UTF-8
Codec ID : S_TEXT/UTF8
Codec ID/Info : UTF-8 Plain Text
Duration : 2 h 23 min
Bit rate : 77 b/s
Count of elements : 2345
Stream size : 81.0 KiB (0%)
Language : Spanish
Default : No
Forced : No

Text #13
ID : 16
Format : UTF-8
Codec ID : S_TEXT/UTF8
Codec ID/Info : UTF-8 Plain Text
Duration : 2 h 23 min
Bit rate : 72 b/s
Count of elements : 2346
Stream size : 76.3 KiB (0%)
Language : Estonian
Default : No
Forced : No

Text #14
ID : 17
Format : UTF-8
Codec ID : S_TEXT/UTF8
Codec ID/Info : UTF-8 Plain Text
Duration : 2 h 23 min
Bit rate : 73 b/s
Count of elements : 2334
Stream size : 77.3 KiB (0%)
Language : Finnish
Default : No
Forced : No

Text #15
ID : 18
Format : UTF-8
Codec ID : S_TEXT/UTF8
Codec ID/Info : UTF-8 Plain Text
Duration : 2 h 23 min
Bit rate : 61 b/s
Count of elements : 2093
Stream size : 65.1 KiB (0%)
Language : French
Default : No
Forced : No

Text #16
ID : 19
Format : UTF-8
Codec ID : S_TEXT/UTF8
Codec ID/Info : UTF-8 Plain Text
Duration : 2 h 23 min
Bit rate : 108 b/s
Count of elements : 2311
Stream size : 115 KiB (0%)
Language : Hebrew
Default : No
Forced : No

Text #17
ID : 20
Format : UTF-8
Codec ID : S_TEXT/UTF8
Codec ID/Info : UTF-8 Plain Text
Duration : 2 h 23 min
Bit rate : 61 b/s
Count of elements : 1617
Stream size : 64.3 KiB (0%)
Language : Hungarian
Default : No
Forced : No

Text #18
ID : 21
Format : UTF-8
Codec ID : S_TEXT/UTF8
Codec ID/Info : UTF-8 Plain Text
Duration : 2 h 23 min
Bit rate : 65 b/s
Count of elements : 2448
Stream size : 68.6 KiB (0%)
Title : SDH
Language : Italian
Default : No
Forced : No

Text #19
ID : 22
Format : UTF-8
Codec ID : S_TEXT/UTF8
Codec ID/Info : UTF-8 Plain Text
Duration : 2 h 16 min
Bit rate : 57 b/s
Count of elements : 1990
Stream size : 57.7 KiB (0%)
Language : Japanese
Default : No
Forced : No

Text #20
ID : 23
Format : UTF-8
Codec ID : S_TEXT/UTF8
Codec ID/Info : UTF-8 Plain Text
Duration : 2 h 23 min
Bit rate : 70 b/s
Count of elements : 2350
Stream size : 74.5 KiB (0%)
Language : Latvian
Default : No
Forced : No

Text #21
ID : 24
Format : UTF-8
Codec ID : S_TEXT/UTF8
Codec ID/Info : UTF-8 Plain Text
Duration : 2 h 23 min
Bit rate : 72 b/s
Count of elements : 2347
Stream size : 76.3 KiB (0%)
Language : Norwegian Bokmal
Default : No
Forced : No

Text #22
ID : 25
Format : UTF-8
Codec ID : S_TEXT/UTF8
Codec ID/Info : UTF-8 Plain Text
Duration : 2 h 23 min
Bit rate : 56 b/s
Count of elements : 1408
Stream size : 58.9 KiB (0%)
Language : Dutch
Default : No
Forced : No

Text #23
ID : 26
Format : UTF-8
Codec ID : S_TEXT/UTF8
Codec ID/Info : UTF-8 Plain Text
Duration : 2 h 23 min
Bit rate : 55 b/s
Count of elements : 2154
Stream size : 58.6 KiB (0%)
Language : Polish
Default : No
Forced : No

Text #24
ID : 27
Format : UTF-8
Codec ID : S_TEXT/UTF8
Codec ID/Info : UTF-8 Plain Text
Duration : 2 h 23 min
Bit rate : 65 b/s
Count of elements : 2264
Stream size : 68.5 KiB (0%)
Title : Brazilian
Language : Portuguese
Default : No
Forced : No

Text #25
ID : 28
Format : UTF-8
Codec ID : S_TEXT/UTF8
Codec ID/Info : UTF-8 Plain Text
Duration : 2 h 23 min
Bit rate : 77 b/s
Count of elements : 2294
Stream size : 81.6 KiB (0%)
Language : Portuguese
Default : No
Forced : No

Text #26
ID : 29
Format : UTF-8
Codec ID : S_TEXT/UTF8
Codec ID/Info : UTF-8 Plain Text
Duration : 2 h 23 min
Bit rate : 134 b/s
Count of elements : 2356
Stream size : 141 KiB (0%)
Language : Russian
Default : No
Forced : No

Text #27
ID : 30
Format : UTF-8
Codec ID : S_TEXT/UTF8
Codec ID/Info : UTF-8 Plain Text
Duration : 2 h 23 min
Bit rate : 67 b/s
Count of elements : 2345
Stream size : 71.1 KiB (0%)
Language : Slovenian
Default : No
Forced : No

Text #28
ID : 31
Format : UTF-8
Codec ID : S_TEXT/UTF8
Codec ID/Info : UTF-8 Plain Text
Duration : 2 h 23 min
Bit rate : 73 b/s
Count of elements : 2323
Stream size : 77.2 KiB (0%)
Language : Swedish
Default : No
Forced : No

Text #29
ID : 32
Format : UTF-8
Codec ID : S_TEXT/UTF8
Codec ID/Info : UTF-8 Plain Text
Duration : 2 h 23 min
Bit rate : 179 b/s
Count of elements : 2358
Stream size : 189 KiB (0%)
Language : Thai
Default : No
Forced : No

Text #30
ID : 33
Format : UTF-8
Codec ID : S_TEXT/UTF8
Codec ID/Info : UTF-8 Plain Text
Duration : 2 h 23 min
Bit rate : 71 b/s
Count of elements : 2293
Stream size : 74.6 KiB (0%)
Language : Turkish
Default : No
Forced : No

Menu
00:00:00.000 : Chapter 1
00:09:57.180 : Chapter 2
00:19:19.659 : Chapter 3
00:29:13.919 : Chapter 4
00:38:46.908 : Chapter 5
00:46:33.291 : Chapter 6
00:54:01.155 : Chapter 7
01:02:11.937 : Chapter 8
01:08:41.951 : Chapter 9
01:17:47.538 : Chapter 10
01:26:55.252 : Chapter 11
01:34:06.683 : Chapter 12
01:41:25.038 : Chapter 13
01:50:28.622 : Chapter 14
02:00:20.338 : Chapter 15
02:07:02.157 : Chapter 16
02:17:15.936 : Chapter 17





1 个附件 售价 大小 下载 时间

Motherless.Brooklyn.2019.2160p.WEB-DL.x265.10bit.HDR.DTS-HD.MA.5.1-SWTYBLZ.torrent 0 金币 22.44K 1519 次 11天前

#1楼
发帖时间:2021-07-22 21:07:35   |   回复数:2
liyouchai
隐世仙人♂
谢谢楼主分享资源
11天前 #2楼
chulps
一代宗师
~ 珍惜+支持 ~
11天前 #3楼
游客组