travismk
一代宗师

[2020] [其他] [剧情] [BD-4K] 从不很少有时总是/从不、很少、有时、总是 Never.Rarely.Sometimes.Always.2020.2160p.WEB-DL.x265.10bit.

-->

帖子完整标题:从不很少有时总是/从不、很少、有时、总是 Never.Rarely.Sometimes.Always.2020.2160p.WEB-DL.x265.10bit.HDR.DD5.1-ROCCaT 17.89GB



◎译  名 从不,很少,有时,总是/从不、很少、有时、总是/绝不、很少、有时、总是
◎片  名 Never Rarely Sometimes Always
◎年  代 2020
◎产  地 美国,英国
◎类  别 剧情
◎语  言 英语
◎上映日期 2020-01-24(圣丹斯电影节) / 2020-02-25(柏林电影节) / 2020-03-13(美国)
◎豆瓣评分 7.6/10 from 38501 users
◎豆瓣链接 https://movie.douban.com/subject/33411505/
◎片  长 101分钟
◎导  演 伊丽莎·希特曼 Eliza Hittman
◎编  剧 伊丽莎·希特曼 Eliza Hittman
◎主  演 茜德尼·弗拉尼根 Sidney Flanigan
      塔莉娅·莱德 Talia Ryder
      西奥多·佩尔兰 Théodore Pellerin
      瑞安·艾戈尔德 Ryan Eggold
      莎伦·凡·艾腾 Sharon Van Etten
      德鲁·塞尔策 Drew Seltzer

◎标  签 女性 | 青春 | 美国 | 剧情 | 2020 | 柏林电影节 | 堕胎 | 美国电影

◎简  介

  故事发生在位于美国宾夕法尼亚州的一个偏僻的小镇上,奥顿(茜德尼·弗拉尼根 Sidney Flanigan 饰)是生活在那里的一个平凡的少女。个性内向的奥顿和家人们关系非常的疏远,生活里也没什么能说得上话的朋友。一天,奥顿震惊的发现自己怀孕了,她前往镇上的医院就诊,在这个民风保守的小地方,堕胎是不被允许的。
  
  无奈之下,奥顿只能自己想办法打掉这个孩子,但试了好几个方法均以失败告终。表妹思凯乐(塔利娅·莱德 Talia Ryder 饰)是奥顿唯一的朋友,敏感又细心的她发现奥顿最近的表现非常的异常。几经询问之下,奥顿终于将自己的秘密告诉了思凯乐,思凯乐当机立断决定带着奥顿前往纽约堕胎。

◎获奖情况

  第70届柏林国际电影节 ?(2020)
  金熊奖(提名) 伊丽莎·希特曼
  银熊奖评审团大奖 伊丽莎·希特曼
  
  第36届圣丹斯电影节 ?(2020)
  评审团大奖剧情片(提名) 伊丽莎·希特曼
  评审团特别奖“新现实主义”特别奖
  
  第68届圣塞巴斯蒂安国际电影节 ?(2020)
  观众选择奖(提名) 伊丽莎·希特曼
  
  第86届纽约影评人协会奖 ?(2020)
  最佳女主角 茜德尼·弗拉尼根
  最佳剧本 伊丽莎·希特曼
  
  第92届美国国家评论协会奖 ?(2020)
  最佳新人演员 茜德尼·弗拉尼根
  十佳独立电影
  
  第26届美国评论家选择电影奖 ?(2021)
  最佳女主角(提名) 茜德尼·弗拉尼根
  最佳青少年演员(提名) 塔莉娅·莱德
  最佳原创剧本(提名) 伊丽莎·希特曼
  
  第36届美国独立精神奖 ?(2021)
  最佳影片(提名)
  最佳导演(提名) 伊丽莎·希特曼
  最佳女主角(提名) 茜德尼·弗拉尼根
  最佳女配角(提名) 塔莉娅·莱德
  最佳剧本(提名)
  最佳摄影(提名) 海莲娜·勒瓦
  最佳剪辑(提名)
  
  第23届英国独立电影奖 ?(2020)
  最佳外国独立电影(提名)
  
  第30届哥谭独立电影奖 ?(2020)
  最佳影片(提名)
  年度突破演员(提名) 茜德尼·弗拉尼根
  
  第55届美国国家影评人协会奖 ?(2021)
  最佳影片(提名)
  最佳女主角(提名) 茜德尼·弗拉尼根
  最佳剧本 伊丽莎·希特曼
  
  第41届波士顿影评人协会奖 ?(2020)
  最佳女主角 茜德尼·弗拉尼根
  
  第46届洛杉矶影评人协会奖 ?(2020)
  最佳剧本(提名) 伊丽莎·希特曼
  
  第33届芝加哥影评人协会奖 ?(2020)
  最佳原创剧本 伊丽莎·希特曼
  最具潜力演员 茜德尼·弗拉尼根
  
  第24届美国在线影评人协会奖 ?(2021)
  最佳影片(提名)
  最佳导演(提名) 伊丽莎·希特曼
  最佳女主角(提名) 茜德尼·弗拉尼根
  最佳女配角(提名) 塔莉娅·莱德
  最佳原创剧本(提名) 伊丽莎·希特曼

Video
ID : 1
Format : HEVC
Format/Info : High Efficiency Video Coding
Format profile : Main [email protected]@High
HDR format : SMPTE ST 2086, HDR10 compatible
Codec ID : V_MPEGH/ISO/HEVC
Duration : 1 h 40 min
Bit rate : 25.0 Mb/s
Width : 3 836 pixels
Height : 2 072 pixels
Display aspect ratio : 1.85:1
Frame rate mode : Constant
Frame rate : 23.976 (24000/1001/189150) FPS
Color space : YUV
Chroma subsampling : 4:2:0 (Type 2)
Bit depth : 10 bits
Bits/(Pixel*Frame) : 0.131
Stream size : 17.6 GiB (98%)
Language : English
Default : Yes
Forced : No
Color range : Limited
Color primaries : BT.2020
Transfer characteristics : PQ
Matrix coefficients : BT.2020 non-constant
Mastering display color primaries : Display P3
Mastering display luminance : min: 0.0050 cd/m2, max: 1000 cd/m2
Maximum Content Light Level : 314 cd/m2
Maximum Frame-Average Light Level : 43 cd/m2

Audio
ID : 2
Format : AC-3
Format/Info : Audio Coding 3
Commercial name : Dolby Digital
Codec ID : A_AC3
Duration : 1 h 40 min
Bit rate mode : Constant
Bit rate : 384 kb/s
Channel(s) : 6 channels
Channel layout : L R C LFE Ls Rs
Sampling rate : 48.0 kHz
Frame rate : 31.250 FPS (1536 SPF)
Compression mode : Lossy
Stream size : 277 MiB (2%)
Language : English
Service kind : Complete Main
Default : Yes
Forced : No

Text #1
ID : 3
Format : UTF-8
Codec ID : S_TEXT/UTF8
Codec ID/Info : UTF-8 Plain Text
Duration : 1 h 33 min
Bit rate : 26 b/s
Count of elements : 611
Stream size : 17.9 KiB (0%)
Language : German
Default : No
Forced : No

Text #2
ID : 4
Format : UTF-8
Codec ID : S_TEXT/UTF8
Codec ID/Info : UTF-8 Plain Text
Duration : 1 h 39 min
Bit rate : 32 b/s
Count of elements : 934
Stream size : 23.9 KiB (0%)
Title : (SDH)
Language : English
Default : No
Forced : No

Text #3
ID : 5
Format : UTF-8
Codec ID : S_TEXT/UTF8
Codec ID/Info : UTF-8 Plain Text
Duration : 1 h 39 min
Bit rate : 37 b/s
Count of elements : 1009
Stream size : 27.7 KiB (0%)
Title : (SDH)
Language : English
Default : No
Forced : No

Text #4
ID : 6
Format : UTF-8
Codec ID : S_TEXT/UTF8
Codec ID/Info : UTF-8 Plain Text
Duration : 1 h 34 min
Bit rate : 25 b/s
Count of elements : 650
Stream size : 17.7 KiB (0%)
Language : French
Default : No
Forced : No

Text #5
ID : 7
Format : UTF-8
Codec ID : S_TEXT/UTF8
Codec ID/Info : UTF-8 Plain Text
Duration : 1 h 34 min
Bit rate : 27 b/s
Count of elements : 645
Stream size : 19.1 KiB (0%)
Language : Italian
Default : No
Forced : No

Text #6
ID : 8
Format : UTF-8
Codec ID : S_TEXT/UTF8
Codec ID/Info : UTF-8 Plain Text
Duration : 1 h 33 min
Bit rate : 23 b/s
Count of elements : 488
Stream size : 16.4 KiB (0%)
Language : Dutch
Default : No
Forced : No





1 个附件 售价 大小 下载 时间

Never.Rarely.Sometimes.Always.2020.2160p.WEB-DL.x265.10bit.HDR.DD5.1-ROCCaT.torrent 0 金币 23.02K 994 次 2月前

#1楼
发帖时间:2021-07-24 15:10:46   |   回复数:0
游客组