squallzhao
武林盟主

[更 早] [其他] [剧情] [WEB-1080P] 最佳销售员 Best.Sellers.2021.1080p.WEBRip.DD5.1.x264-NOGRP 5.05GB

-->

帖子完整标题:最佳销售员 Best.Sellers.2021.1080p.WEBRip.DD5.1.x264-NOGRP 5.05GB



◎译  名 最佳销售员
◎片  名 Best Sellers
◎年  代 2021
◎产  地 加拿大,美国
◎类  别 剧情 / 喜剧
◎语  言 英语
◎上映日期 2021-09-17(加拿大)
◎豆瓣评分 /10 from 0 users
◎豆瓣链接 https://movie.douban.com/subject/33447900/
◎片  长 100分钟
◎导  演 丽娜·罗斯勒 Lina Roessler
◎主  演 迈克尔·凯恩 Michael Caine
      奥布瑞·普拉扎 Aubrey Plaza
      加利·艾尔维斯 Cary Elwes
      斯科特·斯比德曼 Scott Speedman
      艾伦·王 Ellen Wong
      维罗尼卡·费瑞尔 Veronica Ferres
      维多利亚·桑切斯 Victoria Sanchez
      伊拉娜·盖尔 Elana Gale
      弗兰克·萧宾 Frank Schorpion
      Elisabeth Etienne Elisabeth Etienne

◎标  签 喜剧 | 迈克尔·凯恩 | 美国 | 剧情 | 2021 | 美国电影 | 电影 | 柏林

◎简  介

  故事改编自安东尼·格里科(Anthony Grieco)原著剧本,讲述为了挽救一家精品出版社,一位雄心勃勃的年轻编辑(普拉扎饰)与一位作家(凯恩饰)上演了一场狂野的售书之旅。而这名作家一直只是想与苏格兰威士忌、雪茄与虎斑猫过自己的日子。

Video
ID : 1
Format : AVC
Format/Info : Advanced Video Codec
Format profile : [email protected]
Format settings : CABAC / 5 Ref Frames
Format settings, CABAC : Yes
Format settings, Reference frames : 5 frames
Codec ID : V_MPEG4/ISO/AVC
Duration : 1 h 41 min
Bit rate : 6 704 kb/s
Width : 1 920 pixels
Height : 802 pixels
Display aspect ratio : 2.40:1
Frame rate mode : Constant
Frame rate : 23.976 (23976/1000/189150) FPS
Color space : YUV
Chroma subsampling : 4:2:0
Bit depth : 8 bits
Scan type : Progressive
Bits/(Pixel*Frame) : 0.182
Stream size : 4.77 GiB (95%)
Language : English
Default : Yes
Forced : No
Color range : Limited
Color primaries : BT.709
Transfer characteristics : BT.709
Matrix coefficients : BT.709

Audio
ID : 2
Format : AC-3
Format/Info : Audio Coding 3
Commercial name : Dolby Digital
Codec ID : A_AC3
Duration : 1 h 41 min
Bit rate mode : Constant
Bit rate : 384 kb/s
Channel(s) : 6 channels
Channel layout : L R C LFE Ls Rs
Sampling rate : 48.0 kHz
Frame rate : 31.250 FPS (1536 SPF)
Compression mode : Lossy
Stream size : 280 MiB (5%)
Title : English
Language : English
Service kind : Complete Main
Default : Yes
Forced : No

Text
ID : 3
Format : UTF-8
Codec ID : S_TEXT/UTF8
Codec ID/Info : UTF-8 Plain Text
Duration : 1 h 34 min
Bit rate : 59 b/s
Count of elements : 1490
Stream size : 41.6 KiB (0%)
Language : English
Default : Yes
Forced : No





1 个附件 售价 大小 下载 时间

Best.Sellers.2021.1080p.WEBRip.DD5.1.x264-NOGRP.torrent 0 金币 13.25K 630 次 5天前

#1楼
发帖时间:2021-09-15 13:22:17   |   回复数:0
游客组