squallzhao
武林盟主

[更 早] [欧美] [恐怖] [WEB-1080P] 女王蜂 Royal.Jelly.2021.1080p.AMZN.WEBRip.DDP2.0.x264-NOGRP 3.85GB

-->

帖子完整标题:女王蜂 Royal.Jelly.2021.1080p.AMZN.WEBRip.DDP2.0.x264-NOGRP 3.85GB



◎译  名 女王蜂
◎片  名 Royal Jelly
◎年  代 2021
◎产  地 美国
◎类  别 恐怖
◎语  言 英语
◎上映日期 2021-09-14(美国)
◎豆瓣评分 /10 from 0 users
◎豆瓣链接 https://movie.douban.com/subject/35575513/
◎导  演 Sean Riley Sean Riley
◎编  剧 Sean Riley Sean Riley
◎主  演 Tim Tanner

◎简  介

  A high school social outcast is taken under the wing of a mysterious mentor, only to be groomed as the hive's next queen.

Video
ID : 1
Format : AVC
Format/Info : Advanced Video Codec
Format profile : [email protected]
Format settings : CABAC / 4 Ref Frames
Format settings, CABAC : Yes
Format settings, Reference frames : 4 frames
Codec ID : V_MPEG4/ISO/AVC
Duration : 1 h 34 min
Bit rate : 5 492 kb/s
Width : 1 920 pixels
Height : 816 pixels
Display aspect ratio : 2.35:1
Frame rate mode : Constant
Frame rate : 23.976 (24000/1001/189150) FPS
Color space : YUV
Chroma subsampling : 4:2:0
Bit depth : 8 bits
Scan type : Progressive
Bits/(Pixel*Frame) : 0.146
Stream size : 3.63 GiB (94%)
Default : Yes
Forced : No
Color range : Limited
Color primaries : BT.709
Transfer characteristics : BT.709
Matrix coefficients : BT.709

Audio
ID : 2
Format : E-AC-3
Format/Info : Enhanced AC-3
Commercial name : Dolby Digital Plus
Codec ID : A_EAC3
Duration : 1 h 34 min
Bit rate mode : Constant
Bit rate : 224 kb/s
Channel(s) : 2 channels
Channel layout : L R
Sampling rate : 48.0 kHz
Frame rate : 31.250 FPS (1536 SPF)
Compression mode : Lossy
Stream size : 151 MiB (4%)
Language : English
Service kind : Complete Main
Default : Yes
Forced : No

Text
ID : 3
Format : UTF-8
Codec ID : S_TEXT/UTF8
Codec ID/Info : UTF-8 Plain Text
Language : English
Default : Yes
Forced : No





1 个附件 售价 大小 下载 时间

Royal.Jelly.2021.1080p.AMZN.WEBRip.DDP2.0.x264-NOGRP.torrent 0 金币 19.88K 840 次 5天前

#1楼
发帖时间:2021-09-15 16:06:19   |   回复数:0
游客组