topgood
一派掌门

[2020] [欧美] [剧情] [BD-720P] 左拉 Zola.2020.720p.BluRay.x264-PiGNUS 6.55GB

-->

帖子完整标题:左拉 Zola.2020.720p.BluRay.x264-PiGNUS 6.55GB



◎译  名 左拉
◎片  名 Zola
◎年  代 2020
◎产  地 美国
◎类  别 剧情 / 喜剧 / 犯罪
◎语  言 英语
◎上映日期 2020-01-24(圣丹斯电影节) / 2021-06-30(美国)
◎豆瓣评分 6.0/10 from 487 users
◎豆瓣链接 https://movie.douban.com/subject/30248520/
◎片  长 90分钟
◎导  演 加妮克扎·布拉沃 Janicza Bravo
◎编  剧 加妮克扎·布拉沃 Janicza Bravo / 安德鲁·尼尔 Andrew Neel / 迈克·罗伯茨 Mike Roberts
◎主  演 泰勒·佩姬 Taylour Paige
      丽莉·吉欧 Riley Keough
      尼尔西·索弗朗 Nelcie Souffrant
      纳西尔·拉希姆 Nasir Rahim
      阿里尔·斯泰切尔 Ari'el Stachel
      科尔曼·多明戈 Colman Domingo
      尼可拉斯·博朗 Nicholas Braun
      杰森·米切尔 Jason Mitchell
      茨·麦迪逊 Ts Madison
      安德鲁·罗马诺 Andrew Romano
      卡梅伦·布鲁姆布罗 Cameron Brumbelow
      梅根·海耶斯 Megan Hayes
      Dania Vizzi Dania Vizzi
      Steve Warren Steve Warren

◎标  签 美国 | 剧情 | 喜剧 | A24 | 2020 | 2021 | 美国电影 | 美國

◎简  介

  讲述一名年轻的充满异域风情的舞者同意与一名妓女、她的男友和一名皮条客一起踏上前往弗罗里达的旅行,在途中,她收获到了比想象中更多的东西。

◎获奖情况

  第36届圣丹斯电影节 ?(2020)
  评审团大奖剧情片(提名) 加妮克扎·布拉沃

Video
ID : 1
Format : AVC
Format/Info : Advanced Video Codec
Format profile : [email protected]
Format settings : CABAC / 8 Ref Frames
Format settings, CABAC : Yes
Format settings, Reference frames : 8 frames
Codec ID : V_MPEG4/ISO/AVC
Duration : 1 h 25 min
Bit rate : 10.1 Mb/s
Width : 1 280 pixels
Height : 690 pixels
Display aspect ratio : 1.85:1
Frame rate mode : Constant
Frame rate : 23.976 (24000/1001/189150) FPS
Color space : YUV
Chroma subsampling : 4:2:0
Bit depth : 8 bits
Scan type : Progressive
Bits/(Pixel*Frame) : 0.479
Stream size : 6.08 GiB (93%)
Writing library : x264 core 164 r3065 ae03d92
Encoding settings : cabac=1 / ref=8 / deblock=1:-3:-3 / analyse=0x3:0x133 / me=umh / subme=9 / psy=1 / psy_rd=1.00:0.00 / mixed_ref=1 / me_range=16 / chroma_me=1 / trellis=2 / 8x8dct=1 / cqm=0 / deadzone=21,11 / fast_pskip=1 / chroma_qp_offset=-2 / threads=22 / lookahead_threads=1 / sliced_threads=0 / nr=0 / decimate=1 / interlaced=0 / bluray_compat=0 / constrained_intra=0 / bframes=3 / b_pyramid=2 / b_adapt=2 / b_bias=0 / direct=3 / weightb=1 / open_gop=0 / weightp=2 / keyint=250 / keyint_min=23 / scenecut=40 / intra_refresh=0 / rc_lookahead=60 / rc=crf / mbtree=1 / crf=20.0 / qcomp=0.60 / qpmin=0 / qpmax=69 / qpstep=4 / ip_ratio=1.40 / aq=1:1.00
Default : Yes
Forced : No

Audio #1
ID : 2
Format : AC-3
Format/Info : Audio Coding 3
Commercial name : Dolby Digital
Codec ID : A_AC3
Duration : 1 h 25 min
Bit rate mode : Constant
Bit rate : 640 kb/s
Channel(s) : 6 channels
Channel layout : L R C LFE Ls Rs
Sampling rate : 48.0 kHz
Frame rate : 31.250 FPS (1536 SPF)
Compression mode : Lossy
Stream size : 393 MiB (6%)
Language : English
Service kind : Complete Main
Default : Yes
Forced : No

Audio #2
ID : 3
Format : AAC LC
Format/Info : Advanced Audio Codec Low Complexity
Codec ID : A_AAC-2
Duration : 1 h 25 min
Bit rate : 99.2 kb/s
Channel(s) : 2 channels
Channel layout : L R
Sampling rate : 48.0 kHz
Frame rate : 46.875 FPS (1024 SPF)
Compression mode : Lossy
Delay relative to video : 9 ms
Stream size : 61.0 MiB (1%)
Title : Commentary
Language : English
Default : Yes
Forced : No

Text #1
ID : 4
Format : PGS
Muxing mode : zlib
Codec ID : S_HDMV/PGS
Codec ID/Info : Picture based subtitle format used on BDs/HD-DVDs
Duration : 1 h 22 min
Bit rate : 36.3 kb/s
Count of elements : 2146
Stream size : 21.3 MiB (0%)
Title : English SDH
Language : English
Default : No
Forced : No

Text #2
ID : 5
Format : PGS
Muxing mode : zlib
Codec ID : S_HDMV/PGS
Codec ID/Info : Picture based subtitle format used on BDs/HD-DVDs
Duration : 1 h 24 min
Bit rate : 26.5 kb/s
Count of elements : 1770
Stream size : 15.9 MiB (0%)
Title : Spanish
Language : Spanish
Default : No
Forced : No

Menu
00:00:00.000 : Chapter 01
00:06:16.585 : Chapter 02
00:09:41.498 : Chapter 03
00:13:13.793 : Chapter 04
00:18:58.179 : Chapter 05
00:25:03.293 : Chapter 06
00:28:56.610 : Chapter 07
00:32:05.799 : Chapter 08
00:36:36.694 : Chapter 09
00:40:11.868 : Chapter 10
00:44:36.549 : Chapter 11
00:50:50.547 : Chapter 12
00:58:03.230 : Chapter 13
01:04:51.387 : Chapter 14
01:10:52.999 : Chapter 15
01:19:54.581 : Chapter 16
01:25:54.941 : Chapter 17





1 个附件 售价 大小 下载 时间

Zola.2020.720p.BluRay.x264-PiGNUS.torrent 0 金币 17.07K 525 次 5天前

#1楼
发帖时间:2021-09-15 18:54:44   |   回复数:0
游客组