fg603603
武林盟主

[2020] [欧美] [剧情] [BD-Remux] 左拉 Zola.2020.1080p.BluRay.REMUX.AVC.DTS-HD.MA.5.1-FGT 23.30GB

-->

帖子完整标题:左拉 Zola.2020.1080p.BluRay.REMUX.AVC.DTS-HD.MA.5.1-FGT 23.30GB



◎译  名 左拉
◎片  名 Zola
◎年  代 2020
◎产  地 美国
◎类  别 剧情 / 喜剧 / 犯罪
◎语  言 英语
◎上映日期 2020-01-24(圣丹斯电影节) / 2021-06-30(美国)
◎豆瓣评分 6.0/10 from 488 users
◎豆瓣链接 https://movie.douban.com/subject/30248520/
◎片  长 90分钟
◎导  演 加妮克扎·布拉沃 Janicza Bravo
◎编  剧 加妮克扎·布拉沃 Janicza Bravo / 安德鲁·尼尔 Andrew Neel / 迈克·罗伯茨 Mike Roberts
◎主  演 泰勒·佩姬 Taylour Paige
      丽莉·吉欧 Riley Keough
      尼尔西·索弗朗 Nelcie Souffrant
      纳西尔·拉希姆 Nasir Rahim
      阿里尔·斯泰切尔 Ari'el Stachel
      科尔曼·多明戈 Colman Domingo
      尼可拉斯·博朗 Nicholas Braun
      杰森·米切尔 Jason Mitchell
      茨·麦迪逊 Ts Madison
      安德鲁·罗马诺 Andrew Romano
      卡梅伦·布鲁姆布罗 Cameron Brumbelow
      梅根·海耶斯 Megan Hayes
      Dania Vizzi Dania Vizzi
      Steve Warren Steve Warren

◎标  签 美国 | 剧情 | 喜剧 | A24 | 2020 | 2021 | 美国电影 | 美國

◎简  介

  讲述一名年轻的充满异域风情的舞者同意与一名妓女、她的男友和一名皮条客一起踏上前往弗罗里达的旅行,在途中,她收获到了比想象中更多的东西。

◎获奖情况

  第36届圣丹斯电影节 ?(2020)
  评审团大奖剧情片(提名) 加妮克扎·布拉沃

Video
ID : 1
ID in the original source medium : 4113 (0x1011)
Format : AVC
Format/Info : Advanced Video Codec
Format profile : [email protected]
Format settings : CABAC / 4 Ref Frames
Format settings, CABAC : Yes
Format settings, Reference frames : 4 frames
Codec ID : V_MPEG4/ISO/AVC
Duration : 1 h 25 min
Bit rate mode : Variable
Bit rate : 35.4 Mb/s
Maximum bit rate : 37.0 Mb/s
Width : 1 920 pixels
Height : 1 080 pixels
Display aspect ratio : 16:9
Frame rate mode : Constant
Frame rate : 23.976 (24000/1001/189150) FPS
Color space : YUV
Chroma subsampling : 4:2:0
Bit depth : 8 bits
Scan type : Progressive
Bits/(Pixel*Frame) : 0.712
Stream size : 21.2 GiB (91%)
Language : English
Default : No
Forced : No
Original source medium : Blu-ray

Audio #1
ID : 2
ID in the original source medium : 4352 (0x1100)
Format : DTS XLL
Format/Info : Digital Theater Systems
Commercial name : DTS-HD Master Audio
Codec ID : A_DTS
Duration : 1 h 25 min
Bit rate mode : Variable
Bit rate : 3 212 kb/s
Channel(s) : 6 channels
Channel layout : C L R Ls Rs LFE
Sampling rate : 48.0 kHz
Frame rate : 93.750 FPS (512 SPF)
Bit depth : 24 bits
Compression mode : Lossless
Stream size : 1.93 GiB (8%)
Title : DTS-HD MA 5.1
Language : English
Default : Yes
Forced : No
Original source medium : Blu-ray

Audio #2
ID : 3
ID in the original source medium : 4353 (0x1101)
Format : AC-3
Format/Info : Audio Coding 3
Commercial name : Dolby Digital
Codec ID : A_AC3
Duration : 1 h 25 min
Bit rate mode : Constant
Bit rate : 192 kb/s
Channel(s) : 2 channels
Channel layout : L R
Sampling rate : 48.0 kHz
Frame rate : 31.250 FPS (1536 SPF)
Compression mode : Lossy
Stream size : 118 MiB (0%)
Title : DD 2.0
Language : English
Service kind : Complete Main
Default : No
Forced : No
Original source medium : Blu-ray

Text #1
ID : 4
Format : UTF-8
Codec ID : S_TEXT/UTF8
Codec ID/Info : UTF-8 Plain Text
Duration : 1 h 20 min
Bit rate : 49 b/s
Count of elements : 932
Stream size : 28.9 KiB (0%)
Title : SRT
Language : English
Default : No
Forced : No

Text #2
ID : 5
ID in the original source medium : 4608 (0x1200)
Format : PGS
Muxing mode : zlib
Codec ID : S_HDMV/PGS
Codec ID/Info : Picture based subtitle format used on BDs/HD-DVDs
Duration : 1 h 22 min
Bit rate : 36.3 kb/s
Count of elements : 2146
Stream size : 21.3 MiB (0%)
Language : English
Default : No
Forced : No
Original source medium : Blu-ray

Text #3
ID : 6
ID in the original source medium : 4609 (0x1201)
Format : PGS
Muxing mode : zlib
Codec ID : S_HDMV/PGS
Codec ID/Info : Picture based subtitle format used on BDs/HD-DVDs
Duration : 1 h 24 min
Bit rate : 26.5 kb/s
Count of elements : 1770
Stream size : 15.9 MiB (0%)
Language : Spanish
Default : No
Forced : No
Original source medium : Blu-ray

Menu
00:00:00.000 : Chapter 01
00:06:16.584 : Chapter 02
00:09:41.497 : Chapter 03
00:13:13.793 : Chapter 04
00:18:58.178 : Chapter 05
00:25:03.293 : Chapter 06
00:28:56.609 : Chapter 07
00:32:05.798 : Chapter 08
00:36:36.694 : Chapter 09
00:40:11.867 : Chapter 10
00:44:36.548 : Chapter 11
00:50:50.547 : Chapter 12
00:58:03.229 : Chapter 13
01:04:51.387 : Chapter 14
01:10:52.998 : Chapter 15
01:19:54.581 : Chapter 16





1 个附件 售价 大小 下载 时间

Zola.2020.1080p.BluRay.REMUX.AVC.DTS-HD.MA.5.1-FGT.torrent 0 金币 29.76K 840 次 5天前

#1楼
发帖时间:2021-09-15 20:26:50   |   回复数:1
liyouchai
隐世仙人♂
谢谢楼主分享资源
5天前 #2楼
游客组