topgood
一派掌门

[更 早] [欧美] [动作] [BD-720P] 幸存危机/杀戮狂想曲 Survive.the.Game.2021.720p.BluRay.x264-WoAT 3.33GB

-->

帖子完整标题:幸存危机/杀戮狂想曲 Survive.the.Game.2021.720p.BluRay.x264-WoAT 3.33GB



◎译  名 幸存危机/杀戮狂想曲
◎片  名 Survive the Game
◎年  代 2021
◎产  地 美国
◎类  别 动作 / 惊悚
◎语  言 英语
◎上映日期 2021-10-08(美国)
◎豆瓣评分 /10 from 0 users
◎豆瓣链接 https://movie.douban.com/subject/35293262/
◎导  演 詹姆斯·库伦·布雷萨克 James Cullen Bressack
◎编  剧 Ross Peacock Ross Peacock
◎主  演 布鲁斯·威利斯 Bruce Willis

◎标  签 布鲁斯威利斯 | 动作 | 美国 | 惊悚 | 幸存危机 | 等资源 | WK

◎简  介

  当一个警察和一对危险的罪犯出现时,一个人在农场的生活被打断了。

Video
ID : 1
Format : AVC
Format/Info : Advanced Video Codec
Format profile : [email protected]
Format settings : CABAC / 8 Ref Frames
Format settings, CABAC : Yes
Format settings, Reference frames : 8 frames
Codec ID : V_MPEG4/ISO/AVC
Duration : 1 h 36 min
Bit rate : 4 261 kb/s
Width : 1 280 pixels
Height : 536 pixels
Display aspect ratio : 2.40:1
Frame rate mode : Constant
Frame rate : 23.976 (24000/1001/189150) FPS
Color space : YUV
Chroma subsampling : 4:2:0
Bit depth : 8 bits
Scan type : Progressive
Bits/(Pixel*Frame) : 0.259
Stream size : 2.87 GiB (86%)
Writing library : x264 core 164 r3075 66a5bc1
Encoding settings : cabac=1 / ref=8 / deblock=1:-3:-3 / analyse=0x3:0x133 / me=umh / subme=9 / psy=1 / psy_rd=1.00:0.00 / mixed_ref=1 / me_range=32 / chroma_me=1 / trellis=2 / 8x8dct=1 / cqm=0 / deadzone=21,11 / fast_pskip=0 / chroma_qp_offset=-2 / threads=16 / lookahead_threads=2 / sliced_threads=0 / nr=0 / decimate=0 / interlaced=0 / bluray_compat=0 / constrained_intra=0 / bframes=8 / b_pyramid=2 / b_adapt=2 / b_bias=0 / direct=3 / weightb=1 / open_gop=0 / weightp=2 / keyint=250 / keyint_min=23 / scenecut=40 / intra_refresh=0 / rc_lookahead=60 / rc=crf / mbtree=1 / crf=18.5 / qcomp=0.60 / qpmin=0 / qpmax=69 / qpstep=4 / ip_ratio=1.40 / aq=3:0.88
Default : Yes
Forced : No
Color range : Limited
Matrix coefficients : BT.709

Audio
ID : 2
Format : AC-3
Format/Info : Audio Coding 3
Commercial name : Dolby Digital
Codec ID : A_AC3
Duration : 1 h 36 min
Bit rate mode : Constant
Bit rate : 640 kb/s
Channel(s) : 6 channels
Channel layout : L R C LFE Ls Rs
Sampling rate : 48.0 kHz
Frame rate : 31.250 FPS (1536 SPF)
Compression mode : Lossy
Stream size : 442 MiB (13%)
Title : English
Language : English
Service kind : Complete Main
Default : No
Forced : No

Text #1
ID : 3
Format : PGS
Muxing mode : zlib
Codec ID : S_HDMV/PGS
Codec ID/Info : Picture based subtitle format used on BDs/HD-DVDs
Duration : 1 h 33 min
Bit rate : 27.5 kb/s
Count of elements : 2208
Stream size : 18.3 MiB (1%)
Title : English
Language : English
Default : No
Forced : No

Text #2
ID : 4
Format : PGS
Muxing mode : zlib
Codec ID : S_HDMV/PGS
Codec ID/Info : Picture based subtitle format used on BDs/HD-DVDs
Duration : 1 h 34 min
Bit rate : 21.7 kb/s
Count of elements : 1784
Stream size : 14.6 MiB (0%)
Title : Spanish
Language : Spanish
Default : No
Forced : No

Text #3
ID : 5
Format : PGS
Muxing mode : zlib
Codec ID : S_HDMV/PGS
Codec ID/Info : Picture based subtitle format used on BDs/HD-DVDs
Duration : 1 h 32 min
Bit rate : 22.9 kb/s
Count of elements : 1790
Stream size : 15.1 MiB (0%)
Title : Portuguese
Language : Portuguese
Default : No
Forced : No

Menu
00:00:00.000 : Chapter 01
00:05:20.320 : Chapter 02
00:11:58.008 : Chapter 03
00:18:22.351 : Chapter 04
00:23:16.103 : Chapter 05
00:28:51.271 : Chapter 06
00:36:05.913 : Chapter 07
00:41:29.778 : Chapter 08
00:47:46.071 : Chapter 09
00:53:09.936 : Chapter 10
00:59:22.392 : Chapter 11
01:04:42.837 : Chapter 12
01:11:05.594 : Chapter 13
01:19:50.202 : Chapter 14
01:27:14.771 : Chapter 15
01:32:28.042 : Chapter 16





1 个附件 售价 大小 下载 时间

Survive.the.Game.2021.720p.BluRay.x264-WoAT.torrent 0 金币 17.38K 903 次 9天前

#1楼
发帖时间:2021-10-14 09:24:27   |   回复数:1
meilin
武林盟主
无字幕?
8天前 #2楼
游客组