定风波.
一派掌门

[更 早] [大陆] [剧情] [全集] [网盘下载][渴望][全50集][1990][国语中字][MP4][720P][2160P][高清修复版][张凯丽/李雪健][双版]

-->

片       名:渴望
出品时间:1990年12月
每集长度:45分钟
集       数:50
语  言:汉语普通话
类       型:家庭,爱情
出品公司:北京电视艺术中心
制片地区:中国大陆
拍摄地点:北京
首播时间:1990年12月
上映时间:1990(中国大陆),1992(香港)
导       演:鲁晓威、赵宝刚(21-50集)
编       剧:李晓明
策       划:王朔
主       演:张凯丽,李雪健,孙松,黄梅莹,蓝天野,韩影
香港版本 主题曲:邝美云《原来是爱》

大陆版本 主题曲:李娜《好人一生平安》

大陆版本 主题曲:毛阿敏《渴望》

主要奖项:1990年金鹰奖优秀电视剧

               1990年金鹰奖优秀男女主配角

               1991年飞天奖优秀长篇电视剧

               1991年飞天奖最佳男配角
介     绍:

           故事开始于一段复杂的恋情,年轻漂亮的女工刘慧芳面对两个追求者迟疑不决。一个是车间主任宋大成,一个是来厂劳动的大学毕业生王沪生。她渴望爱情,但是,前者有恩于她,后者身处困境,需要帮助,这使她左右为难。王沪生父亲王子涛是个著名学者,于文革初期突然被抓,下落不明,母亲急忧交加,病发身死,姐姐王亚茹是个医生,在送别未婚夫罗冈去干校后,发觉已有身孕,她不顾罗冈的劝阻,偷偷生下一个女儿,取名罗丹,罗冈突然深夜返京,王亚茹惊喜中并未察觉他神色有异,罗冈带着女儿悄然离去,留下一封信,告之他被通缉,生还无望,让王亚茹忘掉他。刘慧芳和王沪生结了婚,刘对捡来的弃婴刘萌发母母爱,王沪生不情愿,只好勉强收留,起名刘小芳,一年后,他们有了自己的孩子——王东东。深感失望的宋大成和刘慧芳的好友徐月娟结了婚,但对徐感情不深。刘慧芳在夜大与教师罗冈相识。偶然间,小芳的身世大白。恰在此时,王亚茹经过几年钻研,终于治愈了小芳相同的病症,生活再一次迫使刘慧芳作出抉择。


2160P Video

ID                             : 1

Format                         : HEVC

Format/Info                    : High Efficiency Video Coding

Format profile                 : [email protected]@Main

Codec ID                       : hev1

Codec ID/Info                  : High Efficiency Video Coding

Duration                       : 47 min 5 s

Bit rate                       : 4 984 kb/s

Width                          : 2 808 pixels

Height                         : 2 160 pixels

Display aspect ratio           : 4:3

Frame rate mode                : Constant

Frame rate                     : 25.000 FPS

Color space                    : YUV

Chroma subsampling             : 4:2:0

Bit depth                      : 8 bits

Bits/(Pixel*Frame)             : 0.033

Stream size                    : 1.64 GiB (97%)

Codec configuration box        : hvcC

--------------------------------------

720p Video

ID                             : 1

Format                         : AVC

Format/Info                    : Advanced Video Codec

Format profile                 : [email protected]

Format settings                : CABAC / 2 Ref Frames

Format settings, CABAC         : Yes

Format settings, Reference fra : 2 frames

Format settings, GOP           : M=1, N=30

Codec ID                       : avc1

Codec ID/Info                  : Advanced Video Coding

Duration                       : 47 min 17 s

Bit rate mode                  : Constant

Bit rate                       : 2 602 kb/s

Width                          : 944 pixels

Height                         : 720 pixels

Display aspect ratio           : 4:3

Frame rate mode                : Constant

Frame rate                     : 30.000 FPS

Color space                    : YUV

Chroma subsampling             : 4:2:0

Bit depth                      : 8 bits

Scan type                      : Progressive

Bits/(Pixel*Frame)             : 0.128

Stream size                    : 880 MiB (95%)

Color range                    : Limited

Color primaries                : BT.709

Transfer characteristics       : BT.709

Matrix coefficients            : BT.709

Codec configuration box        : avcC

--------------------------------------


下载地址







《渴望》720P修复版

百度链接:https://pan.baidu.com/s/1jcYOPi23cX0MbjSqhLx2Mw 

提取码:u8rh

《渴望》2160P修复版

百度链接:https://pan.baidu.com/s/1T39BFXKpL84AFzG_hLaExA 

提取码:lsor

PDF-MP4

#1楼
发帖时间:2021-09-14 17:26:30   |   回复数:9
heiying1978
武林高手
感谢楼主分享
6天前 #2楼
gj0031
一派掌门
多少年前看的,快忘光了
6天前 #3楼
qq95279527qq
无名小卒
80后都是看的断断续续的
6天前 #4楼
lakers430
江湖小虾
多谢楼主的无私分享
6天前 #5楼
songwy126
小有名气
经典,谢谢楼主。
6天前 #6楼
shinguiji
武林高手
引用 Computer_User:

原來1990年就有4K攝像機拍劇了,比加拿大Dalsa公司早十三年,真是奇蹟.


百年前的影片都能数字修复成4K,还能上色。乱世佳人这部80年前的黑白片子都有4K修复彩色版。有问题吗?


你多去了解了解胶片吧。二十年前拍片子全是胶片。几十年前的胶片电影分辨率轻轻松松上6K、8K,只不过当时不具备相应的高分辨率播放设备而已。数字摄影的清晰度是近十来年才接近和超过胶片的。



5天前 #7楼
fanyongfu804975
武林盟主
谢谢分享,看图片估计是4K码率重压并不是真4K画质。
5天前 #8楼
1823358349
武林高手
感谢楼主分享
4天前 #9楼
(.)(.)
小有名气
感谢楼主分享
3天前 #10楼
游客组