原生系统
一派掌门

[2021] [大陆] [纪录] [打包] [BT下载][119请回答.The.Fire.Alarm][全6集][国语中字.无水印][WEB-MP4][1080P][Vampire][普码版]

-->


◎译  名 The Fire Alarm

◎片  名 119请回答

◎年  代 2021

◎产  地 中国大陆

◎类  别 纪录片

◎语  言 汉语普通话

◎上映日期 2021-08-11(中国大陆)

◎豆瓣评分 9.3/10 from 1299 users

◎豆瓣链接 https://movie.douban.com/subject/35545940

◎集  数 6

◎片  长 40-45分钟

◎导  演 吴紫鹃


◎标  签 119 | 消防纪录片 | 消防队 | 纪实 | 纪录片 | 蓝朋友 | 火警 | 敬业


◎简  介


  《119请回答》是由国家应急管理部消防救援局与腾讯视频联合出品的24小时全景追踪式消防纪录片,是一部以写实派白描手法展现的现实题材纪录片。影片用近一年的时间在重庆、哈尔滨两地的两个基层消防站,用真实的画面呈现消防员们出警、训练及生活日常,立体生动的还原了一个个有担当、有勇气、更有人情味的消防员形象;用不同的案件故事,展现出有危险、有乐趣、更有超出想象的戏剧化内容,洞察社会百态,体现人间真实。


General

Complete name               : 119请回答.The.Fire.Alarm.2021.EP01.1080P.WEB-DL.X264.AAC-Vampire.mp4

Format                      : MPEG-4

Format profile              : Base Media

Codec ID                    : isom (isom/iso2/avc1/mp41)

File size                   : 806 MiB

Duration                    : 45 min 34 s

Overall bit rate mode       : Variable

Overall bit rate            : 2 471 kb/s

Movie name                  : 119请回答/The.Fire.Alarm

Album                       : 国产纪录片系列

Performer                   : Vampire制作分享作品

Genre                       : 中国大陆

Recorded date               : 2021

Writing application         : Lavf58.32.104

Cover                       : Yes

Comment                     : 警告:严禁将本人制作的任何作品用于商业性质活动,所有制作作品仅限于测试宽带之用,请于下载后24小时内删除。本人不承担任何法律后果!喜欢本作品请购买正版!!!


Video

ID                          : 1

Format                      : AVC

Format/Info                 : Advanced Video Codec

Format profile              : [email protected]

Format settings             : CABAC / 4 Ref Frames

Format settings, CABAC      : Yes

Format settings, Reference  : 4 frames

Codec ID                    : avc1

Codec ID/Info               : Advanced Video Coding

Duration                    : 45 min 34 s

Bit rate                    : 2 369 kb/s

Width                       : 1 920 pixels

Height                      : 1 080 pixels

Display aspect ratio        : 16:9

Frame rate mode             : Variable

Frame rate                  : 25.000 FPS

Minimum frame rate          : 24.993 FPS

Maximum frame rate          : 25.007 FPS

Color space                 : YUV

Chroma subsampling          : 4:2:0

Bit depth                   : 8 bits

Scan type                   : Progressive

Bits/(Pixel*Frame)          : 0.046

Stream size                 : 772 MiB (96%)

Writing library             : ptw-1.0.134 rcm-adapt vs-93

Color range                 : Limited

Color primaries             : BT.709

Transfer characteristics    : BT.709

Matrix coefficients         : BT.709

Codec configuration box     : avcC


Audio

ID                          : 2

Format                      : AAC LC

Format/Info                 : Advanced Audio Codec Low Complexity

Codec ID                    : mp4a-40-2

Duration                    : 45 min 34 s

Bit rate mode               : Variable

Bit rate                    : 93.4 kb/s

Maximum bit rate            : 94.5 kb/s

Channel(s)                  : 2 channels

Channel layout              : L R

Sampling rate               : 48.0 kHz

Frame rate                  : 46.875 FPS (1024 SPF)

Compression mode            : Lossy

Stream size                 : 30.4 MiB (4%)

Default                     : Yes

Alternate group             : 1


本人发布的种子请使用专业BT下载工具:

UT,Bitcomet,qBittorrent,Xdown开启上传后再下载!!!

使用迅雷或度盘离线可能会没速度!!!


视频的网盘资源均在视频后缀(如mp4或mkv)后又跟随了.xy(mp4.xy或mkv.xy)用以混淆官方视听!
并且加密了文件名,设置了独有的解压密码,请使用WinRAR解压,使用好压或其他可能会出错!
已完结剧集不再分集打包上传,整体打包后分卷,无法单独下载某一集,需要全部下载后一起解压,敬请知晓!
请各位下载的坛友先保存至自己的网盘,然后再进行下载!!!
不要直接在线观看或者解压,否则会很快被网盘官方发觉并和谐!


阿里云盘后缀名凡是“PDF”的,请在下载完成后将后缀名“PDF”修改为“rar”,即可正常解压,观看!

目前阿里云盘上传和下载均不限速,趁着这段“免费VIP”的时间,就暂时放弃度盘吧!


请下载完成的朋友自觉做种一段时间,小水管出种不易,且下且珍惜,谢谢!!!


解压请使用官方原版WinRAR,使用破解版或者好压等软件可能会出错,感谢所有赞赏的朋友!!!


1 个附件 售价 大小 下载 时间

119请回答.The.Fire.Alarm.2021.EP01-06.Complete.1080P.WEB-DL.X264.AAC-Vampire.rar 0 金币 1.37M 2737 次 5天前

#1楼
发帖时间:2021-09-15 18:27:21   |   回复数:2
JYLin26
武林高手
Thanks
5天前 #2楼
jokingcheung
一代宗师
谢谢分享
5天前 #3楼
游客组