q3r3
一代宗师

[2018] [欧美] [其他] [纯净版] [BT下载][惠特尼][BD-MKV/10.31GB][简繁字幕][1080P][纪录片,传记,音乐,美国]

-->



◎译  名 惠特尼 / 云妮侯斯顿:永恒的天后(港) / 永远爱你,惠妮!(台) / 惠特尼·休斯顿
◎片  名 Whitney
◎年  代 2018
◎产  地 英国 / 美国
◎类  别 纪录片 / 音乐 / 传记
◎语  言 英语
◎上映日期 2018-05-16(戛纳电影节) / 2018-07-06(英国)
◎IMDb链接 https://www.imdb.com/title/tt5740866/
◎豆瓣评分 7.8/10 (710人评价)
◎豆瓣链接 https://movie.douban.com/subject/26782382/
◎片  长 120分钟
◎导  演 凯文·麦克唐纳 Kevin Macdonald (id:1040757)
◎演  员 惠特尼·休斯顿 Whitney Houston (id:1022717)
      波比·克里斯蒂娜·布朗 Bobbi Kristina Brown (id:1235531)
      鲍比·布朗 Bobby Brown (id:1075814)
      茜茜·休斯顿 Cissy Houston (id:1095360)
      安东尼奥·里德 Antonio Reid (id:1169180)
      加里·哈斯顿 Gary Houston (id:1393934)
      克莱夫·戴维斯 Clive Davis (id:1056155)
      阿伦·雅各布斯 Alan Jacobs (id:1393936)
      玛丽·琼斯 Mary Jones (id:1393935)

◎标  签 纪录片 / 传记 / 音乐 / 2018 / 美国 / Whitney / 惠特尼 / 英国

◎简  介
  因《九月的某一天》获得奥斯卡最佳纪录长片的凯文·麦克唐纳,将与制片人西蒙·秦联合执导描绘惠特尼·休斯顿生平的纪录片。导演表示想通过纪录片把休斯顿生前经历完整展现,望观众走出影院时,想起休斯顿及她音乐上积极的东西,而不是过度关注她生前的负面事件,忘却其成就。

◎获奖情况 (共2项)
  第71届戛纳电影节 (2018)
  同志金棕榈奖(提名)
   └──凯文·麦克唐纳 (id:1040757)

  第39届伦敦影评人协会奖 (2019)
  年度纪录片(提名)

General
Unique ID : 248476362989446345562269871075260803230 (0xBAEECE8A245EAED5ACC348FFED3AA89E)
Complete name : [email protected]
Format : Matroska
Format version : Version 4
File size : 10.3 GiB
Duration : 2 h 1 min
Overall bit rate : 12.2 Mb/s
Encoded date : UTC 2021-07-19 04:14:27
Writing application : mkvmerge v59.0.0 ('Shining Star') 64-bit
Writing library : libebml v1.4.2 + libmatroska v1.6.4

Video
ID : 1
Format : AVC
Format/Info : Advanced Video Codec
Format profile : [email protected]
Format settings : CABAC / 4 Ref Frames
Format settings, CABAC : Yes
Format settings, Reference frames : 4 frames
Codec ID : V_MPEG4/ISO/AVC
Duration : 2 h 1 min
Bit rate : 10.5 Mb/s
Width : 1 920 pixels
Height : 1 036 pixels
Display aspect ratio : 1.85:1
Frame rate mode : Constant
Frame rate : 23.976 (24000/1001) FPS
Color space : YUV
Chroma subsampling : 4:2:0
Bit depth : 8 bits
Scan type : Progressive
Bits/(Pixel*Frame) : 0.221
Stream size : 8.92 GiB (87%)
Writing library : x264 core 163 r3059+79M f2a8266 t_mod_test_xavc [(8 & 10)[email protected] X86_64]
Encoding settings : cabac=1 / ref=4 / deblock=1:-3:-3 / analyse=0x3:0x133 / me=umh / subme=11 / psy=1 / fade_compensate=0.00 / psy_rd=1.00:0.00 / mixed_ref=1 / me_range=48 / chroma_me=1 / trellis=2 / 8x8dct=1 / cqm=0 / deadzone=21,11 / fast_pskip=0 / chroma_qp_offset=-3 / threads=24 / lookahead_threads=6 / sliced_threads=0 / nr=0 / decimate=0 / interlaced=0 / bluray_compat=0 / constrained_intra=0 / fgo=0 / bframes=11 / b_pyramid=2 / b_adapt=2 / b_bias=0 / direct=3 / weightb=1 / open_gop=0 / weightp=2 / keyint=240 / keyint_min=1 / scenecut=40 / intra_refresh=0 / rc_lookahead=72 / rc=crf / mbtree=0 / crf=18.5000 / qcomp=0.70 / qpmin=0:0:0 / qpmax=69:69:69 / qpstep=4 / vbv_maxrate=62500 / vbv_bufsize=78125 / crf_max=0.0 / nal_hrd=none / filler=0 / ip_ratio=1.40 / pb_ratio=1.30 / aq=3:0.90 / aq-sensitivity=10.00 / aq-factor=1.00:1.00:1.00 / aq2=0 / aq3=0
Language : English
Default : Yes
Forced : No

Audio
ID : 2
Format : DTS
Format/Info : Digital Theater Systems
Codec ID : A_DTS
Duration : 2 h 1 min
Bit rate mode : Constant
Bit rate : 1 509 kb/s
Channel(s) : 6 channels
Channel layout : C L R Ls Rs LFE
Sampling rate : 48.0 kHz
Frame rate : 93.750 FPS (512 SPF)
Bit depth : 24 bits
Compression mode : Lossy
Stream size : 1.28 GiB (12%)
Language : English
Default : Yes
Forced : No

Text #1
ID : 3
Format : PGS
Muxing mode : zlib
Codec ID : S_HDMV/PGS
Codec ID/Info : Picture based subtitle format used on BDs/HD-DVDs
Duration : 2 h 0 min
Bit rate : 67.8 kb/s
Count of elements : 3890
Stream size : 58.2 MiB (1%)
Title : 简英
Language : Chinese
Default : Yes
Forced : No

Text #2
ID : 4
Format : PGS
Muxing mode : zlib
Codec ID : S_HDMV/PGS
Codec ID/Info : Picture based subtitle format used on BDs/HD-DVDs
Duration : 2 h 0 min
Bit rate : 68.3 kb/s
Count of elements : 3890
Stream size : 58.6 MiB (1%)
Title : 繁英
Language : Chinese
Default : No
Forced : No

Text #3
ID : 5
Format : PGS
Muxing mode : zlib
Codec ID : S_HDMV/PGS
Codec ID/Info : Picture based subtitle format used on BDs/HD-DVDs
Duration : 2 h 0 min
Bit rate : 37.4 kb/s
Count of elements : 3890
Stream size : 32.1 MiB (0%)
Title : 简中
Language : Chinese
Default : No
Forced : No

Text #4
ID : 6
Format : PGS
Muxing mode : zlib
Codec ID : S_HDMV/PGS
Codec ID/Info : Picture based subtitle format used on BDs/HD-DVDs
Duration : 2 h 0 min
Bit rate : 37.9 kb/s
Count of elements : 3890
Stream size : 32.6 MiB (0%)
Title : 繁中
Language : Chinese
Default : No
Forced : No

Text #5
ID : 7
Format : PGS
Muxing mode : zlib
Codec ID : S_HDMV/PGS
Codec ID/Info : Picture based subtitle format used on BDs/HD-DVDs
Duration : 2 h 0 min
Bit rate : 51.7 kb/s
Count of elements : 4490
Stream size : 44.4 MiB (0%)
Title : 英语
Language : English
Default : No
Forced : No

Menu
00:00:00.000 : 第 01 章
00:05:36.836 : 第 02 章
00:12:52.772 : 第 03 章
00:20:03.202 : 第 04 章
00:29:18.757 : 第 05 章
00:38:10.288 : 第 06 章
00:48:16.936 : 第 07 章
00:59:50.587 : 第 08 章
01:08:27.270 : 第 09 章
01:17:05.621 : 第 10 章
01:22:14.930 : 第 11 章
01:30:40.435 : 第 12 章
01:38:27.902 : 第 13 章
01:45:27.321 : 第 14 章
01:50:17.861 : 第 15 章
01:55:46.940 : 第 16 章
02:00:23.008 : 第 17 章




1 个附件 售价 大小 下载 时间

惠特尼[简繁字幕][email protected] 10.31GB.torrent 0 金币 30.45K 1568 次 11天前

#1楼
发帖时间:2021-07-22 16:14:48   |   回复数:4
ak147
一代宗师
感谢大大分享
11天前 #2楼
ALLEN820213
隐世仙人♂
感谢楼主分享 !!!
11天前 #3楼
月亮上的猪
武林高手
感谢楼主分享
3天前 #4楼
金枪西门庆
武林盟主
感谢楼主分享,支持。
22小时前 #5楼
游客组