q3r3
一代宗师

[2007] [欧美] [剧情] [纯净版] [BT下载][反恐疑云][BD-MKV/8.72GB][简繁字幕][1080P][美国,反恐,政治,剧情,悬疑]

-->



◎译  名 反恐疑云 / 关键危机 / 死亡引渡 / 引渡疑云 / 移交 / 引渡
◎片  名 Rendition
◎年  代 2007
◎产  地 美国
◎类  别 剧情 / 惊悚 / 战争
◎语  言 英语 / 阿拉伯语
◎上映日期 2007-10-19(加拿大)
◎IMDb链接 https://www.imdb.com/title/tt0804522/
◎豆瓣评分 7.1/10 (6887人评价)
◎豆瓣链接 https://movie.douban.com/subject/2039711/
◎片  长 122分钟
◎导  演 加文·胡德 Gavin Hood (id:1045060)
◎编  剧 凯利·塞恩 Kelley Sane (id:1429970)
◎演  员 杰克·吉伦哈尔 Jake Gyllenhaal (id:1048002)
      瑞茜·威瑟斯彭 Reese Witherspoon (id:1031217)
      梅丽尔·斯特里普 Meryl Streep (id:1054437)
      艾伦·阿金 Alan Arkin (id:1002730)
      彼得·萨斯加德 Peter Sarsgaard (id:1031800)
      奥玛尔·梅特瓦利 Omar Metwally (id:1314341)
      艾格尔·纳尔 Igal Naor (id:1292914)
      哈达尔·拉特松·罗滕 Hadar Ratzon Rotem (id:1423012)
      J·K·西蒙斯 J.K. Simmons (id:1147911)
      西蒙·阿布卡瑞安 Simon Abkarian (id:1032485)
      莫阿·库阿斯 Moa Khouas (id:1308444)
      奇内布·乌凯什 Zineb Oukach (id:1386907)
      阿拉米斯·奈特 Aramis Knight (id:1236077)
      Rosie Malek-Yonan Rosie Malek-Yonan (id:1118189)
      穆尼尔·马戈姆 Mounir Margoum (id:1356134)
      鲍勃·冈顿 Bob Gunton (id:1041179)
      雷曼德·阿萨雷米 Reymonde Amsallem (id:1358266)
      Wendy Phillips Wendy Phillips (id:1128066)
      Christian Martin Christian Martin (id:1122287)
      哈萨姆·甘西 Hassam Ghancy (id:1368830)
      纳吉布·尼西里 Najib Oudghiri (id:1368834)
      芭妮·里维拉 Bunnie Rivera (id:1386554)
      安妮·贝坦克特 Anne Betancourt (id:1278550)
      理查德·多顿 Richard Dorton (id:1393035)
      Floella Benjamin Floella Benjamin (id:1061794)
      Michael Dube Michael Dube (id:1211914)
      斯蒂夫·汤姆 Steve Tom (id:1055778)
      罗伯特·克洛特沃西 Robert Clotworthy (id:1391614)
      穆纳·奥塔茹 Muna Otaru (id:1366342)
      玛丽娜·安德森 Marina Anderson (id:1070310)
      伊莲·安妮·弗斯特 Elaine Anne Furst (id:1432988)
      Joseph Schneider (id:1230554)
      Levi Tinker Levi Tinker (id:1156807)
      Marcus Viscidi Marcus Viscidi (id:1300115)
      托比·艾默里奇 Toby Emmerich (id:1005136)
      史蒂夫·戈林 Steve Golin (id:1285090)
      马克·基里安 Mark Kilian (id:1288526)
      Paul Hepker Paul Hepker (id:1451225)
      迪昂·毕比 Dion Beebe (id:1278213)
      弗兰辛·梅思勒 Francine Maisler (id:1025402)
      Keith Pain Keith Pain (id:1293817)
      吉尔·阿齐斯 Jille Azis (id:1277619)
      Harry Pain Harry Pain (id:1293814)
      托尼·诺布尔 Tony Noble (id:1293220)
      迈克尔·威尔金森 Michael Wilkinson (id:1300947)
      Steve Artmont Steve Artmont (id:1277467)
      Abounouom Mariam Lee (id:1229006)
      Fríea Aradóttir Fríea Aradóttir (id:1057946)
      J·罗伊·埃兰 J. Roy Helland (id:1100521)
      Timothy R. Price Timothy R. Price (id:1302781)
      塔米·萨顿 Tammy Sutton (id:1298686)
      Daniel J. Lombardo Daniel J. Lombardo (id:1290253)
      Jim O'Hagan Jim O'Hagan (id:1126364)
      Martin Hilke Martin Hilke (id:1286616)
      埃里克·亨利 Erik Henry (id:1286464)
      安德鲁·罗伯茨 Andrew Roberts (id:1223036)
      丹尼塔·斯劳格赫特尔 Danita Slaughter (id:1239865)
      米奇·保尔森 Mitch Paulson (id:1247602)
      马克·弗伦德 Mark Freund (id:1284190)
      帕特里克·克兰斯 Patrick Clancey (id:1071903)
      克里斯·戴尔·康特 Chris Del Conte (id:1282169)
      约瑟夫·贝尔 Joseph Bell (id:1309206)
      埃里克·布鲁威勒 Erik Bruhwiler (id:1308923)
      菲·陈 Phi Tran (id:1309487)

◎标  签 美国 / 反恐 / 政治 / 剧情 / JakeGyllenhaal / 悬疑 / 美国电影 / 2007

◎简  介
  埃及裔美国人安瓦?艾尔?伊布拉西米(奥玛尔?梅特瓦利 饰)大约二十年前,从埃及移民到了美国,与漂亮的美国姑娘伊莎贝拉?菲尔兹(莉丝?维瑟斯彭 饰)成了家,夫妻恩爱生活美满,育有一子,伊莎贝拉肚子里的第二胎也日渐成型。
某日,安瓦?艾尔?伊布拉西米从南非出差回来,在华盛顿机场被神秘的黑衣人带走,原因是中央情报局认为身为化学品工程师的安瓦?艾尔?伊布拉西米是恐怖分子,想从他口中撬出有用的情报。倒霉的安瓦被“引渡”至埃及的开罗,交由驻扎在当地的中情局探员道格拉斯?弗里曼(杰克?吉伦哈尔 饰)和老奸巨猾的当地探员审讯。
另一方面,身怀六甲的伊莎贝拉,坚信丈夫是无辜的,四下奔走,努力寻找丈夫的下落。期间,她虽然幸运地获得旧情人(彼得?萨斯加德 饰)的帮助,但终究不足以国家强势机构对抗,一筹莫展。
与此同时,刚刚入行不久的特工道格拉斯?弗里曼,在目睹了CIA同事...

General
Unique ID : 213964497942495169684161788056501902897 (0xA0F8103883622F1F1DE8D65ACA825E31)
Complete name : [email protected]
Format : Matroska
Format version : Version 4
File size : 8.72 GiB
Duration : 2 h 2 min
Overall bit rate : 10.2 Mb/s
Encoded date : UTC 2021-07-19 12:54:22
Writing application : mkvmerge v59.0.0 ('Shining Star') 64-bit
Writing library : libebml v1.4.2 + libmatroska v1.6.4

Video
ID : 1
Format : AVC
Format/Info : Advanced Video Codec
Format profile : [email protected]
Format settings : CABAC / 4 Ref Frames
Format settings, CABAC : Yes
Format settings, Reference frames : 4 frames
Codec ID : V_MPEG4/ISO/AVC
Duration : 2 h 2 min
Bit rate : 8 636 kb/s
Width : 1 920 pixels
Height : 816 pixels
Display aspect ratio : 2.35:1
Frame rate mode : Constant
Frame rate : 23.976 (24000/1001) FPS
Color space : YUV
Chroma subsampling : 4:2:0
Bit depth : 8 bits
Scan type : Progressive
Bits/(Pixel*Frame) : 0.230
Stream size : 7.38 GiB (85%)
Writing library : x264 core 163 r3059+79M f2a8266 t_mod_test_xavc [(8 & 10)[email protected] X86_64]
Encoding settings : cabac=1 / ref=4 / deblock=1:-3:-3 / analyse=0x3:0x133 / me=umh / subme=11 / psy=1 / fade_compensate=0.00 / psy_rd=1.00:0.00 / mixed_ref=1 / me_range=48 / chroma_me=1 / trellis=2 / 8x8dct=1 / cqm=0 / deadzone=21,11 / fast_pskip=0 / chroma_qp_offset=-3 / threads=24 / lookahead_threads=6 / sliced_threads=0 / nr=0 / decimate=0 / interlaced=0 / bluray_compat=0 / constrained_intra=0 / fgo=0 / bframes=11 / b_pyramid=2 / b_adapt=2 / b_bias=0 / direct=3 / weightb=1 / open_gop=0 / weightp=2 / keyint=240 / keyint_min=1 / scenecut=40 / intra_refresh=0 / rc_lookahead=72 / rc=crf / mbtree=0 / crf=18.0000 / qcomp=0.70 / qpmin=0:0:0 / qpmax=69:69:69 / qpstep=4 / vbv_maxrate=62500 / vbv_bufsize=78125 / crf_max=0.0 / nal_hrd=none / filler=0 / ip_ratio=1.40 / pb_ratio=1.30 / aq=3:0.90 / aq-sensitivity=10.00 / aq-factor=1.00:1.00:1.00 / aq2=0 / aq3=0
Language : English
Default : Yes
Forced : No

Audio
ID : 2
ID in the original source medium : 4352 (0x1100)
Format : DTS
Format/Info : Digital Theater Systems
Codec ID : A_DTS
Duration : 2 h 2 min
Bit rate mode : Constant
Bit rate : 1 509 kb/s
Channel(s) : 6 channels
Channel layout : C L R Ls Rs LFE
Sampling rate : 48.0 kHz
Frame rate : 93.750 FPS (512 SPF)
Bit depth : 24 bits
Compression mode : Lossy
Stream size : 1.29 GiB (15%)
Language : English
Default : Yes
Forced : No
Original source medium : Blu-ray

Text #1
ID : 3
Format : PGS
Muxing mode : zlib
Codec ID : S_HDMV/PGS
Codec ID/Info : Picture based subtitle format used on BDs/HD-DVDs
Duration : 1 h 53 min
Bit rate : 35.7 kb/s
Count of elements : 1957
Stream size : 29.0 MiB (0%)
Title : 简英
Language : Chinese
Default : Yes
Forced : No

Text #2
ID : 4
Format : PGS
Muxing mode : zlib
Codec ID : S_HDMV/PGS
Codec ID/Info : Picture based subtitle format used on BDs/HD-DVDs
Duration : 1 h 53 min
Bit rate : 35.9 kb/s
Count of elements : 1957
Stream size : 29.1 MiB (0%)
Title : 繁英
Language : Chinese
Default : No
Forced : No

Text #3
ID : 5
Format : PGS
Muxing mode : zlib
Codec ID : S_HDMV/PGS
Codec ID/Info : Picture based subtitle format used on BDs/HD-DVDs
Duration : 1 h 53 min
Bit rate : 20.3 kb/s
Count of elements : 1957
Stream size : 16.5 MiB (0%)
Title : 简中
Language : Chinese
Default : No
Forced : No

Text #4
ID : 6
Format : PGS
Muxing mode : zlib
Codec ID : S_HDMV/PGS
Codec ID/Info : Picture based subtitle format used on BDs/HD-DVDs
Duration : 1 h 53 min
Bit rate : 20.5 kb/s
Count of elements : 1957
Stream size : 16.6 MiB (0%)
Title : 繁中
Language : Chinese
Default : No
Forced : No

Text #5
ID : 7
ID in the original source medium : 4609 (0x1201)
Format : PGS
Muxing mode : zlib
Codec ID : S_HDMV/PGS
Codec ID/Info : Picture based subtitle format used on BDs/HD-DVDs
Duration : 1 h 52 min
Bit rate : 28.2 kb/s
Count of elements : 3259
Stream size : 22.7 MiB (0%)
Title : 英语
Language : English
Default : No
Forced : No
Original source medium : Blu-ray

Menu
00:00:00.000 : 第 01 章
00:02:27.147 : 第 02 章
00:09:56.929 : 第 03 章
00:17:08.902 : 第 04 章
00:23:06.468 : 第 05 章
00:33:28.256 : 第 06 章
00:39:51.972 : 第 07 章
00:49:03.023 : 第 08 章
00:56:47.612 : 第 09 章
01:05:10.740 : 第 10 章
01:08:47.414 : 第 11 章
01:13:43.377 : 第 12 章
01:19:17.753 : 第 13 章
01:24:48.792 : 第 14 章
01:32:31.295 : 第 15 章
01:34:46.055 : 第 16 章
01:42:29.434 : 第 17 章
01:46:03.774 : 第 18 章
01:49:24.849 : 第 19 章
01:54:10.844 : 第 20 章




1 个附件 售价 大小 下载 时间

反恐疑云[简繁字幕][email protected] 8.72GB.torrent 0 金币 26.50K 1281 次 11天前

#1楼
发帖时间:2021-07-22 16:15:22   |   回复数:5
jokingcheung
一代宗师
谢谢分享
11天前 #2楼
chulps
一代宗师
ddd
11天前 #3楼
yangbo83222179
一代宗师
谢谢楼主分享
11天前 #4楼
ak147
一代宗师
感谢大大分享
11天前 #5楼
ALLEN820213
隐世仙人♂
感谢楼主分享 !!!
11天前 #6楼
游客组