q3r3
一代宗师

[2021] [其他] [其他] [纯净版] [BT下载][无人之地][BD-MKV/7.75GB][中文字幕][1080P][墨西哥,西部,剧情,美国,墨西哥电影]

-->



◎译  名 无人之地
◎片  名 No Man's Land
◎年  代 2021
◎产  地 墨西哥
◎类  别 西部
◎语  言 英语 / 西班牙语
◎上映日期 2021(美国)
◎IMDb链接 https://www.imdb.com/title/tt10449052/
◎豆瓣链接 https://movie.douban.com/subject/35116324/
◎片  长 114分钟
◎导  演 Conor Allyn Conor Allyn (id:1328928)
◎演  员 弗兰克·格里罗 Frank Grillo (id:1100321)
      安迪·麦克道威尔 Andie MacDowell (id:1048128)
      亚历克斯·马克尼科尔 Alex MacNicoll (id:1393405)
      乔治·洛佩兹 George Lopez (id:1044900)
      豪尔赫·A·希门尼斯 Jorge A. Jimenez (id:1311800)
      埃斯梅拉达·皮门特尔 Esmeralda Pimentel (id:1265854)
      奥费莉娅·梅迪纳 Ofelia Medina (id:1118438)
      Julieta Ortiz Julieta Ortiz (id:1312586)

◎标  签 墨西哥 / 西部 / 剧情 / 2021 / 美国 / 墨西哥电影 / 弗兰克·格里罗 / 电影

◎简  介
  IFC Films拿下弗兰克·格里罗、安迪·麦克道威尔、乔治·洛佩兹主演,Conor Allyn执导的[无人之地](No Man’s Land,暂译)北美发行权。该片讲述美国与墨西哥边境守卫比尔·格里尔和他的儿子杰克逊在巡逻中,意外杀死了一名墨西哥男孩,比尔试图承担所有责任,但被德克萨斯州的骑兵拉米雷斯识破。杰克逊不得不往南逃,他穿越沙漠和山脉,以寻求死者父亲的宽恕。该片将于明年北美上映。

General
Unique ID : 270804849955533981459920469976215385873 (0xCBBB1DF12FC5591C23B068082F26F711)
Complete name : No.Man'[email protected]
Format : Matroska
Format version : Version 4
File size : 7.74 GiB
Duration : 1 h 55 min
Overall bit rate : 9 634 kb/s
Movie name : No Man's Land 2020 1080p BluRay DTS [email protected]
Encoded date : UTC 2021-07-20 12:04:09
Writing application : mkvmerge v38.0.0 ('The Silent Type') 64-bit
Writing library : libebml v1.3.9 + libmatroska v1.5.2

Video
ID : 1
Format : HEVC
Format/Info : High Efficiency Video Coding
Format profile : Main [email protected]@High
Codec ID : V_MPEGH/ISO/HEVC
Duration : 1 h 55 min
Bit rate : 8 091 kb/s
Width : 1 920 pixels
Height : 800 pixels
Display aspect ratio : 2.40:1
Frame rate mode : Constant
Frame rate : 23.976 (24000/1001) FPS
Color space : YUV
Chroma subsampling : 4:2:0
Bit depth : 10 bits
Bits/(Pixel*Frame) : 0.220
Stream size : 6.50 GiB (84%)
Title : @HDSky
Writing library : x265 - H.265/HEVC codec
Default : Yes
Forced : No

Audio
ID : 2
Format : DTS
Format/Info : Digital Theater Systems
Codec ID : A_DTS
Duration : 1 h 55 min
Bit rate mode : Constant
Bit rate : 1 509 kb/s
Channel(s) : 6 channels
Channel layout : C L R Ls Rs LFE
Sampling rate : 48.0 kHz
Frame rate : 93.750 FPS (512 SPF)
Bit depth : 24 bits
Compression mode : Lossy
Stream size : 1.21 GiB (16%)
Title : English
Language : English
Default : Yes
Forced : No

Text #1
ID : 3
Format : PGS
Muxing mode : zlib
Codec ID : S_HDMV/PGS
Codec ID/Info : Picture based subtitle format used on BDs/HD-DVDs
Duration : 1 h 52 min
Bit rate : 23.1 kb/s
Count of elements : 1918
Stream size : 18.7 MiB (0%)
Title : ENG
Language : English
Default : Yes
Forced : No

Text #2
ID : 4
Format : PGS
Muxing mode : zlib
Codec ID : S_HDMV/PGS
Codec ID/Info : Picture based subtitle format used on BDs/HD-DVDs
Duration : 1 h 49 min
Bit rate : 19.8 kb/s
Count of elements : 2188
Stream size : 15.5 MiB (0%)
Title : CHS
Language : Chinese
Default : No
Forced : No

Text #3
ID : 5
Format : PGS
Muxing mode : zlib
Codec ID : S_HDMV/PGS
Codec ID/Info : Picture based subtitle format used on BDs/HD-DVDs
Duration : 1 h 49 min
Bit rate : 20.4 kb/s
Count of elements : 2188
Stream size : 15.9 MiB (0%)
Title : CHS
Language : Chinese
Default : No
Forced : No

Menu
00:00:00.000 : en:Chapter 01
00:05:00.000 : en:Chapter 02
00:10:00.000 : en:Chapter 03
00:15:00.000 : en:Chapter 04
00:20:00.000 : en:Chapter 05
00:25:00.000 : en:Chapter 06
00:30:00.000 : en:Chapter 07
00:35:00.000 : en:Chapter 08
00:40:00.000 : en:Chapter 09
00:45:00.000 : en:Chapter 10
00:50:00.000 : en:Chapter 11
00:55:00.000 : en:Chapter 12
01:00:00.000 : en:Chapter 13
01:05:00.000 : en:Chapter 14
01:10:00.000 : en:Chapter 15
01:15:00.000 : en:Chapter 16
01:20:00.000 : en:Chapter 17
01:25:00.000 : en:Chapter 18
01:30:00.000 : en:Chapter 19
01:35:00.000 : en:Chapter 20
01:40:00.000 : en:Chapter 21
01:45:00.000 : en:Chapter 22
01:50:00.000 : en:Chapter 23




1 个附件 售价 大小 下载 时间

无人之地[中文字幕].No.Man'[email protected] 7.75GB.torrent 0 金币 24.07K 1736 次 11天前

#1楼
发帖时间:2021-07-22 16:15:56   |   回复数:3
yusuble
小有名气
感谢分享。
11天前 #2楼
ak147
一代宗师
感谢大大分享
11天前 #3楼
ALLEN820213
隐世仙人♂
感谢楼主分享 !!!
11天前 #4楼
游客组