q3r3
一代宗师

[2014] [其他] [动作] [纯净版] [BT下载][弹窗惊魂][BD-MKV/12.82GB][双语字幕][1080P][悬疑,惊悚,犯罪,西班牙,美国,黑客]

-->



◎译  名 弹窗惊魂 / 开启的窗口(台) / 云端仇人(台)
◎片  名 Open Windows
◎年  代 2014
◎产  地 法国 / 西班牙 / 美国
◎类  别 动作 / 惊悚 / 犯罪
◎语  言 英语 / 西班牙语
◎上映日期 2014-07-04(西班牙)
◎IMDb链接 https://www.imdb.com/title/tt2409818/
◎豆瓣评分 6.2/10 (2469人评价)
◎豆瓣链接 https://movie.douban.com/subject/19974285/
◎片  长 100分钟
◎导  演 那奇欧·维加隆多 Nacho Vigalondo (id:1306843)
◎编  剧 那奇欧·维加隆多 Nacho Vigalondo (id:1306843)
◎演  员 伊利亚·伍德 Elijah Wood (id:1054395)
      萨莎·格蕾 Sasha Grey (id:1031895)
      尼尔·马斯克尔 Neil Maskell (id:1339918)
      米歇尔·珍娜 Michelle Jenner (id:1050174)
      胡里安·毕亚格兰 Julián Villagrán (id:1193599)
      卡洛斯·阿雷塞斯 Carlos Areces (id:1330859)
      劳尔·西马斯 Raúl Cimas (id:1344729)
      Miguel Noguera Miguel Noguera (id:1344730)
      那奇欧·维加隆多 Nacho Vigalondo (id:1306843)
      Richard Diment Richard Diment (id:1344731)
      尤金尼奥·米拉 Eugenio Mira (id:1028857)
      崔凡特·罗兹 Trevante Rhodes (id:1340760)
      Mike McCutchen (id:1270605)
      丹尼尔·佩雷兹·普拉达 Daniel Pérez Prada (id:1146879)
      Rachel Arieff Rachel Arieff (id:1190347)
      海梅·奥利亚斯 Jaime Olías (id:1322925)
      伊凡·冈萨雷斯 Iván González (id:1101638)
      丹尼尔·诺阿 Daniel Noah (id:1328692)

◎标  签 悬疑 / 惊悚 / 犯罪 / 西班牙 / 美国 / 黑客 / 法国 / 动作

◎简  介
  萨拉·格雷在片中饰演一名女演员,遭到了坏人的绑架(尼尔·马斯克尔),而伊利亚·伍德饰演的角色试图通过她在网络上遗留下来的痕迹,来找到她并救出她。影片的特别之处在于其全部镜头都是通过电脑摄像头、手机摄像头、监视器等现实生活中处处可见的视频工具拍摄而成。

◎获奖情况 (共1项)
  第29届西班牙戈雅奖 (2015)
  最佳特效(提名)
   └──David Heras (id:1334066)
   └──劳尔·罗曼尼洛斯 (id:1295967)

General
Unique ID : 38265130472270691203196646773425972083 (0x1CC99897677265405495CC5A88742373)
Complete name : [email protected]
Format : Matroska
Format version : Version 4
File size : 12.8 GiB
Duration : 1 h 40 min
Overall bit rate : 18.3 Mb/s
Encoded date : UTC 2021-07-20 14:33:04
Writing application : mkvmerge v58.0.0 ('Supper's Ready') 64-bit
Writing library : libebml v1.4.2 + libmatroska v1.6.4

Video
ID : 1
Format : AVC
Format/Info : Advanced Video Codec
Format profile : [email protected]
Format settings : CABAC / 4 Ref Frames
Format settings, CABAC : Yes
Format settings, Reference frames : 4 frames
Codec ID : V_MPEG4/ISO/AVC
Duration : 1 h 40 min
Bit rate : 16.7 Mb/s
Width : 1 920 pixels
Height : 1 080 pixels
Display aspect ratio : 16:9
Frame rate mode : Constant
Frame rate : 24.000 FPS
Color space : YUV
Chroma subsampling : 4:2:0
Bit depth : 8 bits
Scan type : Progressive
Bits/(Pixel*Frame) : 0.335
Stream size : 11.7 GiB (91%)
Writing library : x264 core 164 r3065+55M 280faca t_mod_New [(8 & 10)[email protected] X86_64]
Encoding settings : cabac=1 / ref=4 / deblock=1:-3:-3 / analyse=0x3:0x133 / me=umh / subme=11 / psy=1 / fade_compensate=0.00 / psy_rd=1.00:0.00 / mixed_ref=1 / me_range=48 / chroma_me=1 / trellis=2 / 8x8dct=1 / cqm=0 / deadzone=21,11 / fast_pskip=0 / chroma_qp_offset=-3 / threads=24 / lookahead_threads=6 / sliced_threads=0 / nr=0 / decimate=0 / interlaced=0 / bluray_compat=0 / constrained_intra=0 / fgo=0 / bframes=11 / b_pyramid=2 / b_adapt=2 / b_bias=0 / direct=3 / weightb=1 / open_gop=0 / weightp=2 / keyint=240 / keyint_min=1 / scenecut=40 / intra_refresh=0 / rc_lookahead=72 / rc=crf / mbtree=0 / crf=19.0000 / qcomp=0.60 / qpmin=0:0:0 / qpmax=69:69:69 / qpstep=4 / vbv_maxrate=62500 / vbv_bufsize=78125 / crf_max=0.0 / nal_hrd=none / filler=0 / ip_ratio=1.40 / pb_ratio=1.30 / aq=3:0.70 / aq-sensitivity=10.00 / aq-factor=1.00:1.00:1.00 / aq2=0 / aq3=0 / zones=0,960,crf=25/138872,144718,crf=25
Language : English
Default : Yes
Forced : No

Audio
ID : 2
ID in the original source medium : 4353 (0x1101)
Format : DTS
Format/Info : Digital Theater Systems
Codec ID : A_DTS
Duration : 1 h 40 min
Bit rate mode : Constant
Bit rate : 1 509 kb/s
Channel(s) : 6 channels
Channel layout : C L R Ls Rs LFE
Sampling rate : 48.0 kHz
Frame rate : 93.750 FPS (512 SPF)
Bit depth : 16 bits
Compression mode : Lossy
Stream size : 1.06 GiB (8%)
Language : English
Default : Yes
Forced : No
Original source medium : Blu-ray

Text #1
ID : 3
ID in the original source medium : 4609 (0x1201)
Format : PGS
Muxing mode : zlib
Codec ID : S_HDMV/PGS
Codec ID/Info : Picture based subtitle format used on BDs/HD-DVDs
Duration : 1 h 35 min
Bit rate : 51.4 kb/s
Count of elements : 2404
Stream size : 35.0 MiB (0%)
Title : chs&eng
Language : Chinese
Default : Yes
Forced : No
Original source medium : Blu-ray

Text #2
ID : 4
ID in the original source medium : 4610 (0x1202)
Format : PGS
Muxing mode : zlib
Codec ID : S_HDMV/PGS
Codec ID/Info : Picture based subtitle format used on BDs/HD-DVDs
Duration : 1 h 35 min
Bit rate : 51.7 kb/s
Count of elements : 2404
Stream size : 35.2 MiB (0%)
Title : cht&eng
Language : Chinese
Default : No
Forced : No
Original source medium : Blu-ray

Text #3
ID : 5
ID in the original source medium : 4611 (0x1203)
Format : PGS
Muxing mode : zlib
Codec ID : S_HDMV/PGS
Codec ID/Info : Picture based subtitle format used on BDs/HD-DVDs
Duration : 1 h 35 min
Bit rate : 29.0 kb/s
Count of elements : 2403
Stream size : 19.7 MiB (0%)
Title : chs
Language : Chinese
Default : No
Forced : No
Original source medium : Blu-ray

Text #4
ID : 6
ID in the original source medium : 4612 (0x1204)
Format : PGS
Muxing mode : zlib
Codec ID : S_HDMV/PGS
Codec ID/Info : Picture based subtitle format used on BDs/HD-DVDs
Duration : 1 h 35 min
Bit rate : 29.4 kb/s
Count of elements : 2403
Stream size : 20.0 MiB (0%)
Title : cht
Language : Chinese
Default : No
Forced : No
Original source medium : Blu-ray

Text #5
ID : 7
ID in the original source medium : 4613 (0x1205)
Format : PGS
Muxing mode : zlib
Codec ID : S_HDMV/PGS
Codec ID/Info : Picture based subtitle format used on BDs/HD-DVDs
Duration : 1 h 35 min
Bit rate : 22.6 kb/s
Count of elements : 2364
Stream size : 15.4 MiB (0%)
Title : eng
Language : English
Default : No
Forced : No
Original source medium : Blu-ray

Menu
00:00:00.000 : Chapter 01
00:06:01.291 : Chapter 02
00:11:15.250 : Chapter 03
00:17:13.208 : Chapter 04
00:25:13.708 : Chapter 05
00:31:01.958 : Chapter 06
00:36:13.833 : Chapter 07
00:43:30.250 : Chapter 08
00:50:57.166 : Chapter 09
00:56:29.625 : Chapter 10
01:02:32.416 : Chapter 11
01:08:53.958 : Chapter 12
01:14:02.708 : Chapter 13
01:18:40.750 : Chapter 14
01:27:28.625 : Chapter 15
01:32:22.208 : Chapter 16




1 个附件 售价 大小 下载 时间

弹窗惊魂[双语字幕][email protected] 12.82GB.torrent 0 金币 36.75K 2044 次 11天前

#1楼
发帖时间:2021-07-22 16:21:32   |   回复数:5
ken.sting
一派掌门
感谢楼主分享精彩资源!
11天前 #2楼
yangbo83222179
一代宗师
谢谢楼主分享
11天前 #3楼
ak147
一代宗师
感谢大大分享
11天前 #4楼
ALLEN820213
隐世仙人♂
感谢楼主分享 !!!
11天前 #5楼
黑色幽默66
武林高手
感谢楼主分享精彩资源!
6天前 #6楼
游客组