q3r3
一代宗师

[更早] [欧美] [剧情] [纯净版] [BT下载][移魂女郎][BD-MKV/11.85GB][中文字幕][1080P][心理,美国,女性,青春,剧情]

-->



◎译  名 移魂女郎 / 女生向前走(台) / 被禁锢的女孩 / 我有冇问题
◎片  名 Girl, Interrupted
◎年  代 1999
◎产  地 美国 / 德国
◎类  别 剧情 / 传记
◎语  言 英语
◎上映日期 1999-12-08(美国首映) / 2000-01-14(美国)
◎IMDb链接 https://www.imdb.com/title/tt0172493/
◎豆瓣评分 8.2/10 (32676人评价)
◎豆瓣链接 https://movie.douban.com/subject/1296185/
◎片  长 127 分钟
◎导  演 詹姆斯·曼高德 James Mangold (id:1036395)
◎编  剧 苏珊娜·凯森 Susanna Kaysen (id:1041767)
      詹姆斯·曼高德 James Mangold (id:1036395)
      丽莎·卢默 Lisa Loomer (id:1371342)
      安娜·汉密尔顿·费伦 Anna Hamilton Phelan (id:1285925)
◎演  员 薇诺娜·瑞德 Winona Ryder (id:1012519)
      安吉丽娜·朱莉 Angelina Jolie (id:1054447)
      克里·杜瓦尔 Clea DuVall (id:1027191)
      布莱特妮·墨菲 Brittany Murphy (id:1035650)
      伊丽莎白·莫斯 Elisabeth Moss (id:1022566)
      杰瑞德·莱托 Jared Leto (id:1013764)
      杰弗里·塔伯 Jeffrey Tambor (id:1010578)
      瓦妮莎·雷德格雷夫 Vanessa Redgrave (id:1004576)
      乌比·戈德堡 Whoopi Goldberg (id:1041120)
      安吉拉·贝蒂斯 Angela Bettis (id:1013924)
      吉利安·阿美娜特 Jillian Armenante (id:1058688)
      克莉丝汀·梅尔斯 Christina Myers (id:1371343)
      乔安娜·科恩斯 Joanna Kerns (id:1007067)
      米沙·克林斯 Misha Collins (id:1025178)
      柯特伍德·史密斯 Kurtwood Smith (id:1010600)
      亨利·亚历克斯·鲁宾 Henry Alex Rubin (id:1322367)
      道格拉斯·威克 Douglas Wick (id:1300860)
      Cathy Konrad Cathy Konrad (id:1288878)
      麦切尔·丹纳 Mychael Danna (id:1050402)
      凯文·坦特 Kevin Tent (id:1299062)
      Lisa Beach Lisa Beach (id:1278137)
      Maggie Martin Maggie Martin (id:1291127)
      Richard Hoover Richard Hoover (id:1286889)
      艾丽安·飞利浦 Arianne Phillips (id:1294449)
      米尔顿·布拉斯 Milton Buras (id:1279615)
      朱莉亚·L·沃克尔 Julia L. Walker (id:1300304)
      Carol Schwartz Carol Schwartz (id:1297008)
      珍妮·施雷耶 Janeen Schreyer (id:1296963)
      约翰·E·杰克森 John E. Jackson (id:1287483)
      Kathrine Gordon Kathrine Gordon (id:1285188)
      亨利·亚历克斯·鲁宾 Henry Alex Rubin (id:1322367)
      Cas Donovan Cas Donovan (id:1282586)
      Kristen Ploucha Kristen Ploucha (id:1294622)
      Gloria Barnhart Gloria Barnhart (id:1396186)

◎标  签 心理 / 美国 / 女性 / 青春 / 1999 / 剧情 / 成长 / 传记

◎简  介
  本片根据苏珊娜凯森的自传体小说改编而成。苏珊娜(薇诺娜·瑞德 Winona Ryder饰)本是正值花季的普通少女,却被诊断为“边缘精神错乱症”而送进了精神病院。虽然苏珊娜深陷现实世界的精神压力中饱受折磨,但在精神病院苏珊娜结识到了一群看似乖戾却不同寻常的新朋友。具有反社会人格的莉莎(安吉丽娜·朱莉 Angelina Jolie饰),带领患有说谎癖的乔治娜(克丽·杜瓦尔 Clea DuVall饰),对火深怀恐惧的珀丽(伊丽莎白·莫斯 Elisabeth Moss饰),不能当着他人面进食的戴西(布莱特妮·墨菲 Brittany Murphy饰)等其他女孩,做出了很多令人瞠目结舌的举动,这令医院管理人员头痛不已。苏珊娜逐渐融入了女孩们的“秘密活动”中。这一次次离经叛道的疯狂冒险,使她踏上了一场寻找自我的精神之旅。
安吉丽娜·朱莉因本片荣获第72届奥斯卡金像...

◎获奖情况 (共2项)
  第72届奥斯卡金像奖 (2000)
  最佳女配角
   └──安吉丽娜·朱莉 (id:1054447)

  第57届金球奖 (2000)
  电影类 最佳女配角
   └──安吉丽娜·朱莉 (id:1054447)

General
Unique ID : 25325569503670604356896096367170129508 (0x130D86FAF144870F346BDB1570418E64)
Complete name : [email protected]OM.mkv
Format : Matroska
Format version : Version 4
File size : 11.8 GiB
Duration : 2 h 7 min
Overall bit rate mode : Variable
Overall bit rate : 13.3 Mb/s
Movie name : Girl Interrupted 1999 1080p BluRay DTS [email protected]
Encoded date : UTC 2021-07-20 00:47:19
Writing application : mkvmerge v38.0.0 ('The Silent Type') 64-bit
Writing library : libebml v1.3.9 + libmatroska v1.5.2

Video
ID : 1
Format : HEVC
Format/Info : High Efficiency Video Coding
Format profile : Main [email protected]@High
Codec ID : V_MPEGH/ISO/HEVC
Duration : 2 h 7 min
Bit rate : 9 114 kb/s
Width : 1 920 pixels
Height : 1 040 pixels
Display aspect ratio : 1.85:1
Frame rate mode : Constant
Frame rate : 23.976 (24000/1001) FPS
Color space : YUV
Chroma subsampling : 4:2:0
Bit depth : 10 bits
Bits/(Pixel*Frame) : 0.190
Stream size : 8.12 GiB (69%)
Title : [email protected]
Writing library : x265 - H.265/HEVC codec
Default : Yes
Forced : No

Audio
ID : 2
Format : DTS XLL
Format/Info : Digital Theater Systems
Commercial name : DTS-HD Master Audio
Codec ID : A_DTS
Duration : 2 h 7 min
Bit rate mode : Variable
Bit rate : 4 169 kb/s
Channel(s) : 6 channels
Channel layout : C L R Ls Rs LFE
Sampling rate : 48.0 kHz
Frame rate : 93.750 FPS (512 SPF)
Bit depth : 24 bits
Compression mode : Lossless
Stream size : 3.71 GiB (31%)
Title : English
Language : English
Default : Yes
Forced : No

Text
ID : 3
Format : PGS
Muxing mode : zlib
Codec ID : S_HDMV/PGS
Codec ID/Info : Picture based subtitle format used on BDs/HD-DVDs
Duration : 2 h 2 min
Bit rate : 23.8 kb/s
Count of elements : 2613
Stream size : 20.8 MiB (0%)
Title : CHS
Language : Chinese
Default : Yes
Forced : No




1 个附件 售价 大小 下载 时间

移魂女郎[中文字幕][email protected]COM 11.85GB.torrent 0 金币 34.33K 2317 次 11天前

#1楼
发帖时间:2021-07-22 16:22:06   |   回复数:4
yangbo83222179
一代宗师
谢谢楼主分享
11天前 #2楼
ak147
一代宗师
感谢大大分享
11天前 #3楼
ALLEN820213
隐世仙人♂
感谢楼主分享 !!!
11天前 #4楼
金枪西门庆
武林盟主
感谢楼主分享,支持。
21小时前 #5楼
游客组