q3r3
一代宗师

[2021] [欧美] [恐怖] [纯净版] [BT下载][假阳性][WEB-MKV/9.23GB][中文字幕][4K-2160P][恐怖,皮尔斯·布鲁斯南,惊悚,美国]

-->



◎译  名 假阳性
◎片  名 False Positive
◎年  代 2021
◎产  地 美国
◎类  别 恐怖
◎语  言 英语
◎上映日期 2021-06-25(美国网络)
◎IMDb链接 https://www.imdb.com/title/tt10096842/
◎豆瓣链接 https://movie.douban.com/subject/33387253/
◎导  演 李·约翰 John Lee (id:1454465)
◎编  剧 伊拉纳·格雷泽 Ilana Glazer (id:1340529)
      李·约翰 John Lee (id:1454465)
◎演  员 索菲亚·布什 Sophia Bush (id:1009254)
      贾斯汀·塞洛克斯 Justin Theroux (id:1025199)
      皮尔斯·布鲁斯南 Pierce Brosnan (id:1031219)
      沙利文·琼斯 Sullivan Jones (id:1390720)
      格瑞辰·摩尔 Gretchen Mol (id:1041153)
      伊拉纳·格雷泽 Ilana Glazer (id:1340529)
      约什·汉密尔顿 Josh Hamilton (id:1098942)
      露西·沃特斯 Lucy Walters (id:1319095)
      萨宾娜·加德克奇 Sabina Gadecki (id:1028436)
      凯利·奥科 Kelly AuCoin (id:1348237)
      Taylor Ortega Taylor Ortega (id:1457053)
      S·J·索恩 S.J. Son (id:1427588)
      桃乐丝·麦卡锡 Doris McCarthy (id:1388388)
      帕维尔·波哥泽尔斯基 Pawel Pogorzelski (id:1430546)

◎标  签 恐怖 / 皮尔斯·布鲁斯南 / 惊悚 / 2021 / 美国 / Hulu / 贾斯汀·塞洛克斯 / Horror

◎简  介
  伊拉纳·格雷泽(《大城小妞》)、贾斯汀·塞洛克斯、皮尔斯·布鲁斯南将主演A24恐怖新片[假阳性](False Positive,暂译)。约翰·李(John Lee)执导,约翰与伊拉纳操刀剧本。卡司还包括约什·汉密尔顿([八年级])、格瑞辰·摩尔、索菲亚·布什(《芝加哥警署》)。剧情暂处于保密状态。该剧将于下周纽约开拍。

General
Unique ID : 208429005529653754340898980631059388866 (0x9CCDF75F9F7D628D3D0773D74F5059C2)
Complete name : [email protected]OM.mkv
Format : Matroska
Format version : Version 4
File size : 9.23 GiB
Duration : 1 h 32 min
Overall bit rate : 14.3 Mb/s
Encoded date : UTC 2021-07-21 09:46:46
Writing application : mkvmerge v59.0.0 ('Shining Star') 64-bit
Writing library : libebml v1.4.2 + libmatroska v1.6.4

Video
ID : 1
Format : HEVC
Format/Info : High Efficiency Video Coding
Format profile : Main [email protected]@Main
Codec ID : V_MPEGH/ISO/HEVC
Duration : 1 h 32 min
Bit rate : 14.0 Mb/s
Width : 3 840 pixels
Height : 2 160 pixels
Display aspect ratio : 16:9
Frame rate mode : Constant
Frame rate : 24.000 FPS
Color space : YUV
Chroma subsampling : 4:2:0
Bit depth : 10 bits
Bits/(Pixel*Frame) : 0.070
Stream size : 9.07 GiB (98%)
Default : Yes
Forced : No

Audio
ID : 2
Format : E-AC-3
Format/Info : Enhanced AC-3
Commercial name : Dolby Digital Plus
Codec ID : A_EAC3
Duration : 1 h 32 min
Bit rate mode : Constant
Bit rate : 256 kb/s
Channel(s) : 6 channels
Channel layout : L R C LFE Ls Rs
Sampling rate : 48.0 kHz
Frame rate : 31.250 FPS (1536 SPF)
Compression mode : Lossy
Stream size : 169 MiB (2%)
Title : English
Language : English
Service kind : Complete Main
Default : Yes
Forced : No

Text #1
ID : 3
Format : UTF-8
Codec ID : S_TEXT/UTF8
Codec ID/Info : UTF-8 Plain Text
Duration : 1 h 31 min
Bit rate : 56 b/s
Count of elements : 1688
Stream size : 38.3 KiB (0%)
Title : English
Language : English
Default : No
Forced : No

Text #2
ID : 4
Format : UTF-8
Codec ID : S_TEXT/UTF8
Codec ID/Info : UTF-8 Plain Text
Duration : 1 h 27 min
Bit rate : 60 b/s
Count of elements : 1552
Stream size : 38.5 KiB (0%)
Title : Spanish
Language : Spanish
Default : No
Forced : No




1 个附件 售价 大小 下载 时间

假阳性[中文字幕][email protected]COM 9.23GB.torrent 0 金币 27.78K 10238 次 11天前

#1楼
发帖时间:2021-07-22 16:23:13   |   回复数:8
ouku
一派掌门
对你的作品代表深深地敬意。
11天前 #2楼
yls
武林盟主
假阳性 - 2021.WEB.4K.英语中字.[MKV 9.23G]
谢楼主分享
11天前 #3楼
truekyo
小有名气
所以中文字幕是被吃掉了吗?我是没找到,只有英文和西班牙文字幕。
11天前 #4楼
gz5848
小有名气
9.23G~~~~
11天前 #5楼
yangbo83222179
一代宗师
谢谢楼主分享
11天前 #6楼
ak147
一代宗师
感谢大大分享
11天前 #7楼
wuya2004
武林盟主
感谢楼主分享!!!
11天前 #8楼
ALLEN820213
隐世仙人♂
感谢楼主分享 !!!
11天前 #9楼
游客组